<?xml version="1.0" standalone="no"?>
<!DOCTYPE svg PUBLIC "-//W3C//DTD SVG 1.1//EN" "http://www.w3.org/Graphics/SVG/1.1/DTD/svg11.dtd" >
<svg>
<metadata>
Created by FontForge 20131008 at Thu Jul 14 16:02:52 2016
 By ,S-1-5-21-4044246755-3580729156-2901048040-1001
</metadata>
<defs>
<font id="Untitled1" horiz-adv-x="1000" >
  <font-face 
    font-family="Untitled1"
    font-weight="400"
    font-stretch="normal"
    units-per-em="1000"
    panose-1="2 0 5 3 0 0 0 0 0 0"
    ascent="800"
    descent="-200"
    bbox="-5.821 -212.003 1261.32 913.282"
    underline-thickness="50"
    underline-position="-100"
    unicode-range="U+E001-E065"
  />
    <missing-glyph />
    <glyph glyph-name="uniE001" unicode="&#xe001;" 
d="M950.391 336.23c1.66016 -12.8906 0.488281 -25.5859 -5.85938 -34.5703c-3.125 -4.6875 -8.10547 -8.10547 -14.1602 -9.66797c-3.90625 -1.07422 -8.69141 -1.5625 -14.2578 -1.5625c-31.3477 0 -81.1523 15.8203 -121.582 38.5742
c-53.0273 -7.91016 -113.574 -22.3633 -166.797 -39.6484c-45.9961 -80.3711 -79.4922 -116.309 -108.301 -116.309c-5.37109 0 -10.6445 1.26953 -15.625 3.71094l-11.4258 5.76172c-7.22656 4.10156 -8.30078 12.9883 -6.83594 19.9219
c4.39453 21.7773 31.25 49.1211 71.6797 73.3398c4.78516 2.83203 25.0977 13.5742 25.9766 14.0625l11.8164 6.25c11.4258 19.7266 24.1211 42.8711 38.0859 70.2148l1.75781 3.32031c13.2812 26.0742 28.3203 55.4688 40.332 84.7656l4.29688 10.4492
c-16.7969 64.0625 -26.0742 113.477 -17.0898 146.582c3.02734 10.5469 14.2578 17.5781 28.0273 17.5781l7.42188 -0.195312c12.4023 0.585938 20.3125 -9.27734 24.3164 -18.5547l1.26953 -3.32031c1.07422 -3.125 1.36719 -4.19922 1.95312 -8.10547
c3.90625 -28.418 -10.8398 -112.402 -10.8398 -112.402c-0.683594 -3.125 -1.46484 -6.15234 -2.34375 -9.66797c13.6719 -37.5 35.5469 -71.4844 61.8164 -95.9961c9.76562 -9.08203 22.168 -16.6992 34.2773 -23.6328c26.9531 3.71094 52.5391 5.56641 73.8281 5.37109
c31.4453 -0.390625 52.1484 -5.27344 61.4258 -14.4531c3.32031 -3.22266 6.34766 -8.00781 6.83635 -11.8162zM513.28 194.728c14.1602 6.44531 35.6445 26.8555 67.8711 78.125c-4.39453 -4.10156 -9.08203 -8.59375 -11.0352 -10.1562
c-30.7617 -25.1953 -51.5625 -53.6133 -56.8359 -67.9688zM695.312 614.062c-4.19922 0 -3.80859 -33.1055 -3.90625 -33.2031c0 -17.2852 2.53906 -43.8477 7.8125 -60.6445c6.34766 11.4258 11.4258 26.7578 11.0352 48.6328s-5.66406 45.2148 -14.9415 45.2148z
M641.016 315.234c35.4492 13.6719 75.6836 24.8047 122.266 33.8867c-3.22266 2.44141 -6.25 4.88281 -9.08203 7.32422c-22.8516 19.4336 -42.3828 43.5547 -58.0078 72.0703c-7.91016 -20.3125 -18.457 -45.0195 -35.1562 -76.6602
c-6.83594 -12.8906 -13.5742 -25.0977 -20.02 -36.621zM934.569 317.871c2.83203 1.75781 2.63672 10.3516 -13.9648 14.5508c-16.5039 4.19922 -21.582 4.19922 -38.4766 4.19922c-9.17969 0 -19.5312 -0.390625 -30.7617 -1.26953
c29.2969 -12.5 50.0977 -20.2148 66.9922 -20.2148c5.27344 0 13.3789 0.976562 16.2109 2.73431zM390.331 850c2.14844 0 4.29688 -0.0976562 6.44531 -0.0976562c166.406 0 332.715 0 499.121 0.0976562c4.00391 0 6.73828 -1.17188 9.47266 -4.00391
c45.6055 -45.8008 91.3086 -91.4062 137.109 -137.109c2.24609 -2.24609 3.32031 -4.39453 3.32031 -7.71484c-0.0976562 -94.1406 -0.0976562 -276.074 -0.0976562 -370.215v-5.17578h-73.6328v305.273h-144.824v144.727h-362.793v-725.195h276.27v-74.0234h-350.391
v873.438zM838.671 59.668v100.684c0.488281 -0.0976562 0.878906 -0.0976562 1.36719 -0.0976562h145.215c0.878906 0 1.75781 0.195312 2.92969 0.292969v50.0977c50.4883 -33.5938 100.391 -66.9922 150.586 -100.391
c-50.3906 -33.5938 -100.293 -66.8945 -150.879 -100.586v50.0977h-19.4336c-43.2617 -0.0976562 -86.5234 -0.0976562 -129.785 -0.0977128z" />
    <glyph glyph-name="unie002" unicode="&#xe002;" 
d="M497.919 737.732c241.494 0 437.171 -195.678 437.171 -437.171s-195.677 -437.171 -437.171 -437.171c-241.431 0 -437.17 195.678 -437.17 437.171s195.738 437.171 437.17 437.171zM497.919 -78.3213c208.912 0 378.884 169.972 378.884 378.883
c0 208.906 -169.972 378.883 -378.884 378.883c-208.906 0 -378.878 -169.977 -378.878 -378.883c0 -208.911 169.972 -378.883 378.878 -378.883zM711.319 437.772c11.3623 11.3701 29.8457 11.3701 41.208 -0.000976562c11.3672 -11.3623 11.3672 -29.8418 0 -41.208
l-291.501 -291.562c-5.71289 -5.65234 -13.1709 -8.50684 -20.6338 -8.50684c-7.4668 0 -14.9248 2.79297 -20.6396 8.50684l-175.624 175.682c-11.3672 11.3672 -11.3672 29.8467 0 41.209c11.3662 11.3711 29.8418 11.3711 41.208 0l155.056 -155.047zM711.319 437.772z
" />
    <glyph glyph-name="unie003" unicode="&#xe003;" 
d="M498.445 -137.905c-58.877 0 -116.014 11.54 -169.822 34.2998c-51.9531 21.9746 -98.6045 53.4248 -138.656 93.4766s-71.502 86.7031 -93.4766 138.656c-22.7588 53.8105 -34.2998 110.945 -34.2998 169.823c0 58.877 11.541 116.013 34.2998 169.821
c21.9746 51.9541 53.4248 98.6045 93.4766 138.656c40.0518 40.0527 86.7031 71.502 138.656 93.4775c53.8105 22.7598 110.946 34.2998 169.823 34.2998s116.013 -11.54 169.821 -34.2998c51.9531 -21.9756 98.6045 -53.4248 138.656 -93.4775
c40.0518 -40.0518 71.5029 -86.7031 93.4766 -138.656c22.7598 -53.8096 34.2998 -110.945 34.2998 -169.822c0 -58.8779 -11.54 -116.014 -34.2998 -169.822c-21.9736 -51.9531 -53.4248 -98.6045 -93.4766 -138.656s-86.7031 -71.502 -138.656 -93.4766
c-53.8096 -22.7598 -110.945 -34.2998 -169.822 -34.2998zM498.445 672.647c-99.9785 0 -193.973 -38.9336 -264.669 -109.63s-109.63 -164.69 -109.63 -264.668c0 -99.9785 38.9336 -193.974 109.63 -264.669s164.69 -109.63 264.669 -109.63
c99.9775 0 193.974 38.9336 264.668 109.63c70.6953 70.6963 109.63 164.69 109.63 264.669c0 99.9775 -38.9336 193.972 -109.63 264.668c-70.6943 70.6963 -164.689 109.63 -264.668 109.63zM668.38 297.563l-248.018 -189.639v380.85z" />
    <glyph glyph-name="unie004" unicode="&#xe004;" 
d="M424.579 48.9209c-12.375 18.5791 -83.7422 126.216 -85.1514 128.424c-1.6377 2.37402 0.916992 3.4707 0.916992 3.4707s132.942 60.9385 137.133 62.8701c4.25488 1.94727 3.14355 -2.7666 3.14355 -2.7666l-17.2197 -62.543s20.3623 -12.2754 60.4307 -11.4082
c59.1553 1.22754 110.485 44.0781 124.301 56.584c2.32324 2.19434 3.14258 1.75195 2.0293 -1.19434c-9.10059 -24.9121 -59.7764 -141.027 -204.928 -115.052c-4.35352 -15.1074 -14.7305 -47.9414 -17.9053 -58.1064
c-0.623047 -1.89746 -1.57227 -2.06152 -2.75 -0.27832v0zM350.854 305.033c-3.4375 -3.01172 -4.55176 -2.66797 -3.11035 1.16211c10.4746 27.8428 62.5918 141.257 207.318 115.347c4.18945 14.5342 13.9453 45.3389 17.6436 57.1729
c1.47363 4.04297 4.32129 0.638672 4.32129 0.638672l84.8525 -128.097s1.44141 -3.30664 -1.4082 -4.66406c-3.76465 -1.90039 -115.623 -52.0684 -138.408 -63.4766c-4.28906 -2.17676 -3.14355 1.93164 -3.14355 1.93164l17.7441 64.4404
s-20.6562 12.3906 -61.3145 11.5723c-57.9756 -1.24316 -108.553 -41.8193 -124.495 -56.0274zM907.663 670.647c15.6455 0 28.3281 -12.6826 28.3281 -28.3271v-34.7803c0 -15.6445 -12.6836 -28.3271 -28.3281 -28.3271h-31.3672l-129.639 -676.51h-493.151
l-131.671 676.51h-29.8818c-15.6455 0 -28.3281 12.6836 -28.3281 28.3271v34.7803c0 15.6445 12.6836 28.3271 28.3281 28.3271h815.71zM713.619 -57.3213l121.978 636.536h-673.036l123.89 -636.536h427.17h-0.000976562z" />
    <glyph glyph-name="unie005" unicode="&#xe005;" 
d="M499.232 736.157c240.135 0 434.788 -194.644 434.788 -434.749s-194.653 -434.75 -434.788 -434.75c-240.113 0 -434.778 194.646 -434.778 434.75c0 240.104 194.665 434.749 434.778 434.749zM499.255 -89.7734c215.602 0 391.007 176.119 391.007 391.523
c0 215.4 -175.405 390.629 -391.007 390.629c-215.6 0 -391.007 -175.229 -391.007 -390.63c0 -215.404 175.407 -391.522 391.007 -391.522zM694.971 323.013c12.001 0 21.7334 -9.73926 21.7344 -21.7305c0 -12.0127 -9.73047 -21.7344 -21.7324 -21.7344h-356.333
l127.893 -140.845c8.49023 -8.51465 8.49023 -22.2627 0 -30.7324c-4.24512 -4.24512 -9.80664 -6.38867 -15.3652 -6.38867c-5.55176 0 -11.1113 2.14355 -15.3652 6.38867l-174.536 192.844l177.263 191.505c8.47754 8.48926 22.2314 8.48926 30.7305 0
c8.47754 -8.48926 8.47754 -22.2393 0 -30.7275l-129.23 -138.579h354.943h-0.000976562z" />
    <glyph glyph-name="unie006" unicode="&#xe006;" 
d="M3.75 464.625h752.438v-551.375l-752.438 4.6875v546.688v-0.000976562v0.000476562zM127.812 579.5h752.438v-546.688h-124.062v34.375h86.125v480.188h-680v-82.75h-34.5v114.875h-0.001zM246.125 704.75h750.062v-547.938h-115.938v32.125h81.5625v483.625h-682.375
v-93.0625h-33.3125v125.25z" />
    <glyph glyph-name="unie007" unicode="&#xe007;" 
d="M710.562 51.3125h60.5625v-92.75h91.4375v-59.1875h-88.875l-1.3125 -94h-61.8125v92.6875h-92.75v60.5h92.75v92.75zM787.812 146.625v444.437h-170v123.688h-416.125v-832.25h322.125v-77.125h-402v989.375h573.25l167.5 -156.062v-492.062h-74.75v-0.00195312
v0.00095312z" />
    <glyph glyph-name="unie008" unicode="&#xe008;" 
d="M504 792c273.936 0 496 -222.064 496 -496s-222.064 -496 -496 -496s-496 222.064 -496 496c0 273.936 222.064 496 496 496zM799.872 16.4805l-0.0166016 72.2559h-591.729v-72.2559zM824.943 107.248l-0.0332031 70.3838c0 50.4805 -40.416 91.4082 -90.2725 91.4082
c0 0 -144.592 -3.08789 -160.464 15.2324c-14.8477 5.50391 -15.04 71.9033 -15.04 71.9033s15.8398 39.6484 20.0645 49.9678c4.22363 10.3203 60.1758 70.8164 60.1758 129.505c0 77.1357 -60.6084 139.663 -135.392 139.663
c-74.7686 0 -135.393 -62.5273 -135.393 -139.663c0 -58.6885 52.4639 -118.561 60.1758 -129.505c7.72852 -10.9434 20.0645 -50.8154 20.0645 -50.8154s7.55176 -51.9365 -10.0322 -65.9844c-7.2959 -19.0713 -165.488 -20.3193 -165.488 -20.3193
c-49.8398 0 -90.2559 -40.9287 -90.2559 -91.4082v-70.3682z" />
    <glyph glyph-name="unie009" unicode="&#xe009;" 
d="M450.333 551.434l-309.018 -218.852l309.017 -218.883v102.25v33.333h33.334c120.566 -0.0332031 265.801 -0.0996094 391.768 -145.8c-33.6338 206.667 -162.8 308.65 -392.101 310.866l-33 0.333984v33v103.75v0.000976562zM483.666 615.916l-0.000976562 -168.233
c410.55 -3.9668 434.033 -321.55 434.033 -463.7c-125.517 223.833 -273.949 231.9 -434.032 231.968v-166.7l-400 283.333z" />
    <glyph glyph-name="unie00A" unicode="&#xe00a;" 
d="M816.467 733.4c73.6328 0 133.333 -59.7168 133.316 -133.334c0 -73.6494 -59.7002 -133.35 -133.333 -133.35c-49.0166 0 -91.7334 26.5332 -114.9 65.917l-389.85 -163.518c3.16602 -11.3828 4.9834 -23.3496 4.9834 -35.7998
c0 -23.166 -5.86719 -44.9502 -16.1836 -63.916l250.667 -180.217c24.3164 26.8828 59.4326 43.8994 98.5996 43.8994c73.6172 0 133.333 -59.6992 133.333 -133.316c0 -73.6504 -59.7158 -133.35 -133.333 -133.35c-73.6162 0 -133.083 59.6992 -133.083 133.35
c0 22.4502 5.58301 43.583 15.3496 62.1504l-251.083 180.517c-24.334 -26.2168 -59.0166 -42.7002 -97.584 -42.7002c-73.6162 0 -133.333 59.7002 -133.333 133.583c0 73.7002 59.7168 133.417 133.333 133.417c49.3838 0 92.417 -26.9336 115.467 -66.8672
l389.551 163.384c-3.35059 11.7002 -5.25 24.0332 -5.25 36.8164c0 73.6172 59.6992 133.334 133.333 133.334zM649.8 99.7334c-55.1328 0 -99.916 -44.8496 -99.916 -99.9834c0 -55.1504 44.7666 -100.017 99.916 -100.017c55.1504 0 100 44.8662 100 100.017
c0 55.1338 -44.8496 99.9834 -100 99.9834zM183.384 233.066c55.1494 0 100 44.8672 100 100.25c0 55.2334 -44.8506 100.084 -100 100.084c-55.1504 0 -100 -44.8672 -100 -100.084c0 -55.3994 44.8496 -100.25 100 -100.25zM816.467 500.051
c55.1494 0 100 44.8672 100 100.017c0 55.1504 -44.8506 100 -100 100c-55.1504 0 -100 -44.8496 -100 -100c0 -55.1494 44.8496 -100.017 100 -100.017z" />
    <glyph glyph-name="unie00B" unicode="&#xe00b;" 
d="M560.536 312.64l282.127 -273.146c13.6934 -13.2686 13.6934 -34.7822 0 -48.0537c-13.6924 -13.2695 -35.8955 -13.2695 -49.5908 0l-282.148 273.168l-282.148 -273.168c-13.6953 -13.2695 -35.8984 -13.2695 -49.5908 0c-13.6943 13.2715 -13.6943 34.7842 0 48.0537
l282.127 273.147l-282.127 273.146c-13.6943 13.2686 -13.6943 34.7822 0 48.0537c13.6924 13.2686 35.8955 13.2686 49.5908 0l282.148 -273.168l282.149 273.167c13.6953 13.2686 35.8984 13.2686 49.5908 0c13.6934 -13.2715 13.6934 -34.7842 0 -48.0537z" />
    <glyph glyph-name="unie00C" unicode="&#xe00c;" 
d="M209.255 797.753c8.6123 0 15.6025 -6.95703 15.6025 -15.6006v-731.146c0 -8.58105 -6.99023 -15.6016 -15.6025 -15.6016h-193.06c-8.6123 0 -15.6025 7.02051 -15.6025 15.6016v731.146c0 8.6123 6.99023 15.6016 15.6025 15.6016h193.06v-0.001zM193.653 66.6094
v699.94h-161.856v-699.94zM75.3271 641.078h74.1094v-31.0479h-74.1094v31.0479zM75.6699 433.104h74.1104v-31.0479h-74.1104zM75.3271 537.105h74.1094v-31.0791h-74.1094v31.0791zM329.329 641.078h74.1719v-31.0479h-74.1719v31.0479zM329.609 433.104h74.1729v-31.0479
h-74.1729zM329.329 537.105h74.1719v-31.0791h-74.1719v31.0791zM631.76 642.889h74.1719v-31.0479h-74.1719v31.0479zM631.76 539.978h74.1719v-31.1104h-74.1719v31.1104zM592.724 768.798l-0.000976562 -282.335c-10.6406 -3.21484 -21.0322 -4.40039 -31.2051 -8.58203
v306.519c0 8.61328 6.99023 15.6025 15.6025 15.6025h188.566c8.6123 0 15.6025 -6.98926 15.6025 -15.6025v-309.451c-10.2041 2.93262 -20.626 8.98633 -31.2041 10.9521v282.897zM280.837 66.6104h23.3408c2.12109 -10.6094 4.77344 -20.9688 7.86328 -31.2041h-46.8066
c-8.6123 0 -15.6016 7.02051 -15.6016 15.6016v731.146c0 8.6123 6.98926 15.6016 15.6016 15.6016h187.756c8.6123 0 15.6016 -6.98926 15.6016 -15.6016v-335.477c-10.7656 -5.27344 -21.125 -11.2334 -31.2041 -17.5674v337.441h-156.551v-699.94v0zM752.176 466.835
c142.54 -40.4092 247.138 -171.312 247.23 -326.833c0 -187.756 -152.183 -340.001 -339.97 -340.001c-153.774 0 -283.583 102.162 -325.646 242.271c-2.99609 10.1094 -5.61719 20.4072 -7.80078 30.8916c-4.27539 21.6562 -6.58398 43.9668 -6.58398 66.8711
c0 121.415 63.8125 227.729 159.547 287.827c9.98535 6.30273 20.2822 12.1377 30.8916 17.3496c6.61523 3.24512 13.3242 6.36523 20.1582 9.17383c10.0479 4.15039 20.3447 7.83203 30.8916 11.0146c31.2041 9.42383 64.1562 14.6035 98.4805 14.6035
c21.126 0 41.7207 -2.18359 61.8467 -5.89746c10.4854 -1.93457 20.7822 -4.36816 30.9552 -7.27077zM659.344 -169.106c170.406 0 309.078 138.64 309.018 309.107c0 138.109 -91.0537 255.281 -216.245 294.785c-10.1729 3.18262 -20.4072 5.89746 -30.9551 8.05078
c-19.9707 4.08789 -40.6895 6.24121 -61.8467 6.24121c-34.4805 0 -67.5254 -5.89746 -98.4795 -16.3516c-10.5479 -3.55664 -20.9072 -7.73828 -30.8926 -12.3877c-6.99023 -3.24512 -13.4492 -7.36426 -20.1582 -11.1084
c-10.6719 -5.95996 -21.0312 -12.4824 -30.8916 -19.6279c-77.5742 -56.167 -128.655 -146.722 -128.655 -249.602c0 -22.998 2.74609 -45.3086 7.48926 -66.8711c2.30957 -10.5469 5.24219 -20.7822 8.58105 -30.8916c41.0332 -122.602 156.77 -211.346 293.037 -211.346z
M747.091 204.376h-175.523c-8.6123 0 -15.6016 6.95801 -15.6016 15.6016c0 8.58105 6.98926 15.6025 15.6016 15.6025h175.523c8.6123 0 15.6025 -7.02148 15.6025 -15.6025c0 -8.6748 -6.99023 -15.6016 -15.6025 -15.6016zM747.091 111.231h-175.523
c-8.6123 0 -15.6016 6.95801 -15.6016 15.6016c0 8.58203 6.98926 15.6025 15.6016 15.6025h175.523c8.6123 0 15.6025 -7.02051 15.6025 -15.6025c0 -8.64355 -6.99023 -15.6016 -15.6025 -15.6016zM747.091 17.3701h-175.523c-8.6123 0 -15.6016 7.02148 -15.6016 15.6025
c0 8.64355 6.98926 15.6016 15.6016 15.6016h175.523c8.6123 0 15.6025 -6.95801 15.6025 -15.6016c0 -8.58105 -6.99023 -15.6025 -15.6025 -15.6025z" />
    <glyph glyph-name="unie00D" unicode="&#xe00d;" 
d="M490.045 209.909c-0.961914 -9.21094 -2.75977 -18.1768 -2.75977 -27.6475c0 -16.0684 1.96094 -31.6338 4.68164 -46.9092h-392.484c-20.4053 0 -36.9482 16.6904 -36.9482 37.2812c0 20.5898 16.543 37.2754 36.9482 37.2754zM615.911 408.729
c-31.7412 -19.082 -59.3486 -44.1641 -80.5732 -74.5566h-435.854c-20.4053 0 -36.9482 16.6895 -36.9482 37.2754c0 20.5957 16.543 37.2812 36.9482 37.2812h516.429h-0.000976562h-0.000823438zM99.4834 532.992c-20.4053 0 -36.9482 16.6885 -36.9482 37.2754
s16.543 37.2812 36.9482 37.2812h714.287c20.4053 0 36.9434 -16.6953 36.9434 -37.2812s-16.5381 -37.2754 -36.9434 -37.2754h-714.287zM749.115 371.448c103.725 0 187.807 -84.8398 187.807 -189.5c0 -104.656 -84.082 -189.497 -187.807 -189.497
s-187.807 84.8418 -187.807 189.497c0 104.66 84.082 189.5 187.807 189.5zM858.741 134.85c19.3008 0 34.9482 15.6465 34.9473 34.9492v4.81934c0 19.3018 -15.6465 34.9482 -34.9482 34.9482h-69.4746v71.0557c0 19.4736 -15.7881 35.2627 -35.2666 35.2627h-2.8457
c-19.4736 0 -35.2666 -15.7891 -35.2666 -35.2627v-110.824c0 -19.3018 15.6504 -34.9482 34.9482 -34.9482h107.906v0z" />
    <glyph glyph-name="unie00E" unicode="&#xe00e;" 
d="M704.898 7.29102c0 -48.4883 39.3193 -87.8213 87.8135 -87.8213s87.8135 39.334 87.8135 87.8213c0 48.4941 -39.3193 87.8135 -87.8135 87.8135s-87.8135 -39.3193 -87.8135 -87.8135zM558.542 592.716c0 -48.4941 39.3193 -87.8135 87.8135 -87.8135
c48.4951 0 87.8145 39.3193 87.8145 87.8135c0 48.4951 -39.3193 87.8145 -87.8145 87.8145c-48.4941 0 -87.8135 -39.3193 -87.8135 -87.8145zM119.474 139.012c0 -80.8389 65.5312 -146.356 146.355 -146.356c80.8252 0 146.357 65.5176 146.357 146.357
c0 80.8389 -65.5322 146.355 -146.357 146.355c-80.8242 0 -146.355 -65.5176 -146.355 -146.356zM60.9316 139.013c0 113.168 91.7432 204.9 204.896 204.901c38.4629 0 74.4072 -10.6201 105.151 -29.0576l173.141 173.141
c-27.2119 26.585 -44.1211 63.6738 -44.1211 104.723c0 80.8389 65.5322 146.355 146.356 146.355c80.8252 0 146.356 -65.5176 146.356 -146.356c0 -80.8398 -65.5312 -146.357 -146.356 -146.357c-18.1943 0 -35.6035 3.30176 -51.667 9.3623l-178.028 -178.044
c33.5576 -36.4746 54.0684 -85.1689 54.0684 -138.666c0 -12.1494 -1.04395 -24.0693 -3.07324 -35.6318l192.521 -33.8867c23.3818 49.751 73.9209 84.1543 132.535 84.1543c80.8242 0 146.355 -65.5156 146.355 -146.356c0 -80.8447 -65.5312 -146.363 -146.355 -146.363
c-80.8252 0 -146.356 65.5186 -146.356 146.363l0.0712891 5.20215l-197.352 34.7588c-33.6729 -67.0947 -103.063 -113.146 -183.245 -113.146c-113.153 0 -204.897 91.7363 -204.897 204.905h0.000976562z" />
    <glyph glyph-name="unie00F" unicode="&#xe00f;" 
d="M704.938 298.25h74.6875v-368.938c0 -40 -32.4375 -72.4375 -72.4375 -72.4375h-579.125c-40 0 -72.4375 32.4375 -72.4375 72.4375v579.125c0 40 32.4375 72.4375 72.4375 72.4375h368.938v-74.625h-366.688v-574.688h574.625v366.688v0.000976562v-0.000476562z
M871.938 743.062c40 0 72.4385 -32.4375 72.501 -72.4375v-466.188h-74.6875v402.438l-600.688 -600.688l-64.0625 64.0625l598.125 598.125h-402.438v74.6875z" />
    <glyph glyph-name="unie010" unicode="&#xe010;" 
d="M482 687c220 0 400 -180 400 -400s-180 -400 -400 -400s-400 180 -400 400s180 400 400 400zM482 -68c195 0 355 160 355 355s-160 355 -355 355s-355 -160 -355 -355s160 -355 355 -355zM417 207v-60l-135 95v60zM447 487l-85 5l140 -100c-5 0 -5 -5 -5 -10v-65
l-140 100l-85 -60l180 -125l50 35v-20l-40 -30v-110l40 30v-20l-45 -30h-5h-5l-190 135l-5 5v130l5 5l105 75l25 20l-50 35c-5 5 -5 5 -5 10c0 0 5 5 5 0h110h5l155 -110h-25zM442 217l-175 125v-115l175 -125v115zM637 267h20v-15h-20v15zM607 267h20v-15h-20v15zM607 287
h20v-10h-20v10zM582 267h20v-15h-20v15zM692 372c10 0 15 -5 20 -10v-235c0 -10 -5 -15 -15 -15h-155c-10 0 -15 10 -15 15v235c0 5 5 10 15 10h150zM662 277h-30v10h35v5h-100v-5h35v-10h-25v-25h85v25zM662 242h-85v-5h85v5zM562 337v-5h75v5h-75zM562 327v-5h45v5h-45z
M572 197c0 0 5 5 15 5c5 5 10 10 15 10l-5 5l-30 -15c5 0 5 -5 5 -5zM597 202v-10h10c10 0 15 5 15 15v15h45v5h-105v-5h50v-15c0 -5 0 -5 -5 -5h-10zM672 202c-15 5 -25 10 -30 15l-5 -5l30 -15zM677 152v5h-75v-5h75zM677 162v5h-45v-5h45zM677 162z" />
    <glyph glyph-name="unie011" unicode="&#xe011;" 
d="M679.734 -62.6865h-362.687s-36.2646 0 -36.2646 36.2715v181.344h36.2646v-181.344h362.687v181.344h36.2715v-181.344c0 -36.2715 -36.2715 -36.2715 -36.2715 -36.2715zM897.35 46.1211h-108.808c-36.2715 0 -36.2715 36.2646 -36.2715 36.2646v108.807h-507.757
v-108.807c0 -36.2646 -36.2715 -36.2646 -36.2715 -36.2646h-108.801s-36.2715 0 -36.2715 36.2646v398.957c0 36.2715 36.2715 36.2715 36.2715 36.2715h181.343v108.801s0 36.2715 36.2646 36.2715h362.687c36.2715 0 36.2715 -35.7793 36.2715 -36.2715v-108.801h181.343
c36.2646 0 36.2646 -36.2715 36.2646 -36.2715v-398.957c0 -36.2646 -36.2646 -36.2646 -36.2647 -36.2646zM788.542 82.3857h108.809v398.957h-797.908v-398.957h108.801v145.078h580.3v-145.078h-0.000976562zM317.05 517.614h362.687v108.801
c-0.0273438 0.387695 -362.687 0 -362.687 0zM171.968 445.071c20.0283 0 36.2754 -16.2471 36.2754 -36.2812c0 -20.0225 -16.2266 -36.2539 -36.2754 -36.2539c-20.0293 0 -36.2607 16.2314 -36.2607 36.2539c0 20.0342 16.2314 36.2812 36.2607 36.2812zM362.387 118.657
c4.99707 0 9.07031 -4.04492 9.07129 -9.07617c0 -4.99219 -4.05176 -9.05957 -9.07129 -9.05957c-5.01367 0 -9.06445 4.06738 -9.06445 9.05957c0 5.00879 4.05078 9.07617 9.06445 9.07617zM635.951 100.521h-226.757c-4.14941 0 -7.51465 4.06152 -7.51465 9.06543
c0 5.04102 3.36426 9.07031 7.51465 9.07031h226.757c4.17773 0 7.52148 -4.0293 7.52148 -9.07031c-0.000976562 -5.00391 -3.34375 -9.06543 -7.52148 -9.06543zM362.388 46.1211c5.0127 0 9.07031 -4.07324 9.07129 -9.07227
c0 -4.99023 -4.05859 -9.06348 -9.07129 -9.06348c-5.01367 0 -9.06445 4.07227 -9.06445 9.06348c0 4.99902 4.05078 9.07227 9.06445 9.07227zM635.957 27.9854h-226.763c-4.14941 0 -7.51465 4.0293 -7.51465 9.07031c0 5.00293 3.36816 9.06543 7.51465 9.06543h226.757
c4.18262 0 7.51562 -4.0625 7.51562 -9.06543c0.00585938 -5.04102 -3.33203 -9.07031 -7.50962 -9.07031zM635.957 27.9854z" />
    <glyph glyph-name="unie012" unicode="&#xe012;" 
d="M495.74 175.554c-13.7178 0 -26.625 5.32324 -36.3311 14.9932l-143.018 143.04c-5.41113 5.41113 -8.38965 12.6045 -8.38965 20.2539s2.97949 14.8447 8.38965 20.2539s12.6035 8.3877 20.2539 8.3877s14.8447 -2.97754 20.2539 -8.3877l138.83 -138.844
l138.86 138.844c5.41113 5.41113 12.6035 8.3877 20.2539 8.3877s14.8447 -2.97754 20.2539 -8.3877c11.1699 -11.1699 11.1699 -29.3379 0 -40.5117l-143.013 -143.002c-9.69336 -9.69238 -22.6006 -15.0293 -36.3486 -15.0293zM495.743 181.257
c15.7988 0 28.6455 12.8477 28.6455 28.6455v363.651c0 15.7988 -12.8486 28.6455 -28.6455 28.6455s-28.6426 -12.8506 -28.6426 -28.6455v-363.651c0 -15.7998 12.8496 -28.6455 28.6426 -28.6455zM283.612 -46.0312c-65.9277 0 -119.56 53.6338 -119.56 119.56v333.348
c0 65.9268 53.6338 119.56 119.56 119.56c15.793 0 28.6426 -12.8457 28.6426 -28.6426s-12.8457 -28.6426 -28.6426 -28.6426c-34.3398 0 -62.2725 -27.9355 -62.2725 -62.2725v-333.348c0 -34.3369 27.9346 -62.2725 62.2725 -62.2725h424.264
c34.3369 0 62.2725 27.9355 62.2725 62.2725v333.348c0 34.3369 -27.9355 62.2725 -62.2725 62.2725c-15.793 0 -28.6426 12.8457 -28.6426 28.6426c0 15.7969 12.8457 28.6426 28.6426 28.6426c65.9277 0 119.56 -53.6338 119.56 -119.56v-333.348
c0 -65.9277 -53.6338 -119.56 -119.56 -119.56z" />
    <glyph glyph-name="unie013" unicode="&#xe013;" 
d="M499.992 799.406c275.834 0 499.427 -223.59 499.427 -499.4c0 -275.824 -223.593 -499.412 -499.427 -499.412c-275.819 0 -499.411 223.588 -499.411 499.412c0 275.811 223.592 499.4 499.411 499.4zM499.992 -160.994c254.601 0 461.01 206.376 461.008 460.999
c0 254.599 -206.409 460.988 -461.008 460.988c-254.607 0 -460.998 -206.391 -460.998 -460.988c0 -254.623 206.393 -460.999 460.998 -460.999zM563.496 298.432v63.8975h28.2422v-131.633l-91.6855 90.5586l-91.792 -90.541v131.615h28.2432v-63.915l63.5488 62.6826z
M500.003 504.364c111.604 0 202.405 -91.5811 202.406 -204.144c0 -78.4482 -44.1074 -146.688 -108.62 -180.852v-97.2471c0 -52.1533 -42.0996 -94.6035 -93.7852 -94.6035c-51.7246 0 -93.791 42.4502 -93.791 94.6035v97.249
c-64.5127 34.1621 -108.62 102.4 -108.62 180.85c0 112.562 90.7998 204.144 202.41 204.144zM565.549 62.6006l-0.000976562 44.4717c-1.67578 -0.577148 -3.36523 -1.12988 -5.06152 -1.66504c-0.305664 -0.0976562 -0.611328 -0.189453 -0.918945 -0.286133
c-1.16016 -0.361328 -2.32617 -0.710938 -3.49805 -1.0498c-0.416016 -0.123047 -0.831055 -0.244141 -1.24902 -0.363281c-1.12695 -0.319336 -2.25977 -0.624023 -3.39355 -0.927734c-0.397461 -0.105469 -0.791016 -0.212891 -1.18652 -0.316406
c-1.48242 -0.381836 -2.96875 -0.751953 -4.46191 -1.09863c-0.335938 -0.0820312 -0.672852 -0.151367 -1.00879 -0.228516c-1.15625 -0.262695 -2.3125 -0.521484 -3.47559 -0.763672c-0.609375 -0.128906 -1.22266 -0.24707 -1.83398 -0.370117
c-0.90625 -0.180664 -1.81055 -0.358398 -2.71973 -0.525391c-0.660156 -0.124023 -1.32324 -0.243164 -1.98633 -0.359375c-0.891602 -0.154297 -1.78516 -0.303711 -2.67969 -0.447266c-0.650391 -0.106445 -1.29883 -0.212891 -1.94922 -0.311523
c-1.0293 -0.15332 -2.05957 -0.299805 -3.0918 -0.4375c-0.510742 -0.0673828 -1.01953 -0.146484 -1.53125 -0.209961c-1.50195 -0.193359 -3.00684 -0.366211 -4.52148 -0.524414c-0.520508 -0.0507812 -1.04883 -0.0966797 -1.57227 -0.146484
c-1.05371 -0.100586 -2.10547 -0.198242 -3.16309 -0.28418c-0.608398 -0.0498047 -1.2207 -0.0917969 -1.83008 -0.134766c-1 -0.0732422 -2.00098 -0.136719 -3.00293 -0.194336c-0.604492 -0.03125 -1.20996 -0.0673828 -1.81445 -0.09375
c-1.07715 -0.0527344 -2.1543 -0.0917969 -3.23438 -0.125c-0.519531 -0.0175781 -1.03906 -0.0380859 -1.56055 -0.0478516c-1.59668 -0.0400391 -3.19824 -0.0625 -4.80273 -0.0625c-1.60742 0 -3.20801 0.0224609 -4.80957 0.0625
c-0.511719 0.00976562 -1.01953 0.0302734 -1.53125 0.0478516c-1.09277 0.0332031 -2.1875 0.0722656 -3.27539 0.125c-0.589844 0.0283203 -1.17676 0.0615234 -1.7627 0.09375c-1.03223 0.0556641 -2.06445 0.123047 -3.09277 0.196289
c-0.580078 0.0410156 -1.15723 0.0830078 -1.73438 0.128906c-1.12207 0.0917969 -2.23926 0.195312 -3.35645 0.302734c-0.458008 0.0458984 -0.918945 0.0830078 -1.37695 0.128906c-1.54492 0.163086 -3.08398 0.337891 -4.61914 0.535156
c-0.392578 0.0507812 -0.78125 0.110352 -1.17383 0.163086c-1.16016 0.152344 -2.31738 0.314453 -3.4707 0.490234c-0.576172 0.0830078 -1.14746 0.178711 -1.72168 0.270508c-0.982422 0.15918 -1.96289 0.320312 -2.94141 0.491211
c-0.59082 0.106445 -1.18359 0.210938 -1.77441 0.321289c-1 0.183594 -1.99805 0.379883 -2.99219 0.579102c-0.52832 0.105469 -1.0625 0.208984 -1.58887 0.320312c-1.31348 0.274414 -2.62012 0.5625 -3.92383 0.862305
c-0.192383 0.0458984 -0.387695 0.0839844 -0.579102 0.129883c-1.53027 0.356445 -3.05176 0.732422 -4.56738 1.12695c-0.323242 0.0839844 -0.645508 0.170898 -0.96582 0.259766c-1.21191 0.318359 -2.41797 0.646484 -3.61914 0.986328
c-0.373047 0.108398 -0.745117 0.214844 -1.11621 0.326172c-1.21875 0.352539 -2.43164 0.714844 -3.6377 1.0918c-0.271484 0.0849609 -0.542969 0.166992 -0.8125 0.251953c-1.71094 0.540039 -3.41504 1.09375 -5.10449 1.67871v-44.4688zM500.004 -44.0127
c36.123 0 65.5449 29.6807 65.5459 66.1367v21.1582h-131.098v-21.1582c0 -36.4561 29.4082 -66.1367 65.5521 -66.1367zM527.453 126.748c83.042 13.3164 146.715 86.0322 146.716 173.476c0 96.8594 -78.124 175.66 -174.165 175.66
c-96.0469 0 -174.168 -78.7998 -174.168 -175.66c0 -87.4746 63.7148 -160.209 146.804 -173.486c0.806641 -0.131836 1.61328 -0.248047 2.4248 -0.366211c0.519531 -0.0761719 1.04199 -0.152344 1.56348 -0.222656
c0.702148 -0.0947266 1.40625 -0.186523 2.1123 -0.276367c0.702148 -0.0869141 1.40918 -0.164062 2.11523 -0.243164c0.570312 -0.0625 1.13965 -0.130859 1.71094 -0.1875c1.24805 -0.126953 2.49805 -0.239258 3.75391 -0.339844
c0.422852 -0.03125 0.850586 -0.0595703 1.27637 -0.0908203c0.932617 -0.0654297 1.86816 -0.126953 2.80469 -0.176758c0.478516 -0.0263672 0.957031 -0.0498047 1.43652 -0.0732422c0.935547 -0.0439453 1.87402 -0.0800781 2.81152 -0.106445
c0.427734 -0.0136719 0.854492 -0.0292969 1.28418 -0.0400391c1.34863 -0.03125 2.70605 -0.0527344 4.06445 -0.0527344c1.35645 0 2.70703 0.0214844 4.05469 0.0527344c0.441406 0.0107422 0.880859 0.0263672 1.32227 0.0400391
c0.916016 0.0283203 1.83203 0.0625 2.74414 0.104492c0.504883 0.0253906 1.00879 0.0488281 1.5127 0.0771484c0.883789 0.0478516 1.76465 0.106445 2.64746 0.168945c0.480469 0.0371094 0.958008 0.0634766 1.43555 0.100586
c1.22266 0.0966797 2.44141 0.207031 3.6582 0.328125c0.673828 0.0683594 1.34473 0.150391 2.01758 0.224609c0.586914 0.0673828 1.1748 0.129883 1.76172 0.203125c0.797852 0.0976562 1.59668 0.203125 2.39355 0.3125
c0.379883 0.0507812 0.759766 0.103516 1.14062 0.161133c0.921875 0.130859 1.84082 0.268555 2.75488 0.414062h0.0117188v-0.000976562zM485.882 632.508h28.2207v-70.4961h-28.2207v70.4961zM730.404 546.032l-49.4277 -49.8467l-19.9746 20.1309l49.4492 49.8438z
M338.966 516.316l-19.958 -20.1309l-49.4102 49.8467l19.9365 20.1279z" />
    <glyph glyph-name="unie014" unicode="&#xe014;" 
d="M606.374 -17.1543c-19.4346 0 -38.9092 5.86523 -57.7197 11.5312c-17.4336 5.26074 -33.9033 10.2188 -48.6543 10.2188s-31.2207 -4.95801 -48.6543 -10.2188c-27.5938 -8.31055 -58.1543 -15.7715 -82.8594 -7.74316
c-28.6904 9.32031 -47.54 34.3467 -64.1797 56.4268c-10.5957 14.042 -20.5869 27.3008 -31.6934 35.3857c-11.332 8.25293 -27.1973 13.75 -43.9893 19.5762c-27.2168 9.44434 -55.3594 19.1992 -72.8672 43.2529c-17.3389 23.7979 -17.9619 53.4521 -18.5859 82.124
c-0.37793 17.9141 -0.736328 34.8281 -5.15625 48.4268c-4.11719 12.7109 -13.5049 26.0928 -23.4395 40.2588c-15.96 22.7871 -34.0723 48.6162 -34.0723 79.3271c0 30.7012 18.1123 56.5303 34.0723 79.3184c9.93555 14.1748 19.3223 27.5566 23.4395 40.2393
c4.41992 13.6094 4.77832 30.5312 5.17578 48.4463c0.604492 28.6719 1.24609 58.3242 18.5664 82.1328c17.5088 24.0537 45.6504 33.8086 72.8672 43.252c16.791 5.82715 32.6572 11.3232 43.9893 19.5771c11.124 8.08301 21.1162 21.3428 31.6934 35.3857
c16.6396 22.0791 35.4902 47.1152 64.1797 56.4268c7.74316 2.5127 16.2051 3.78711 25.1387 3.78711c19.4346 0 38.9092 -5.86426 57.7197 -11.5303c17.4336 -5.26074 33.9033 -10.2188 48.6543 -10.2188c14.7695 0 31.2402 4.95801 48.6543 10.209
c18.8115 5.66602 38.2656 11.5312 57.7002 11.5312c8.95312 0 17.415 -1.27441 25.1777 -3.7959c28.6709 -9.31152 47.5205 -34.3379 64.1602 -56.417c10.5771 -14.0332 20.5684 -27.293 31.6748 -35.376c11.3506 -8.25391 27.2158 -13.7598 44.0078 -19.5869
c27.2168 -9.44336 55.3594 -19.209 72.8672 -43.2422c17.3389 -23.8086 17.9619 -53.4609 18.5859 -82.1416c0.37793 -17.915 0.736328 -34.8281 5.15625 -48.4268c4.11719 -12.7119 13.5049 -26.0938 23.4395 -40.2686c15.9785 -22.7783 34.0723 -48.5977 34.0723 -79.2988
c0 -30.7109 -18.1123 -56.54 -34.0723 -79.3271c-9.93555 -14.165 -19.3223 -27.5479 -23.4395 -40.25c-4.41992 -13.6084 -4.77832 -30.5312 -5.17578 -48.4463c-0.604492 -28.6709 -1.24609 -58.3242 -18.5664 -82.1318
c-17.5088 -24.0352 -45.6504 -33.79 -72.8672 -43.2334c-16.791 -5.81738 -32.6572 -11.3242 -43.9893 -19.5771c-11.1055 -8.08398 -21.0977 -21.3428 -31.6934 -35.3857c-16.6396 -22.0791 -35.4902 -47.1055 -64.1797 -56.4268
c-7.74121 -2.51562 -16.2041 -3.79102 -25.1377 -3.79102v0zM500 43.2764c20.4551 0 40.4756 -6.02539 59.8164 -11.8613c22.9297 -6.92188 44.877 -12.8428 59.7607 -7.98926c17.0742 5.54297 30.749 23.6934 45.2354 42.9131
c11.8242 15.6855 24.043 31.9014 39.7959 43.3838c15.998 11.6357 35.376 18.3496 54.1123 24.8467c22.5703 7.82812 43.8945 15.2236 54.2451 29.4463c10.1797 14.0049 10.6719 36.4424 11.1816 60.2041c0.415039 19.9258 0.868164 40.5322 7.04492 59.5615
c5.91211 18.207 17.4141 34.6299 28.5576 50.5049c13.9209 19.8604 27.0654 38.6152 27.0654 57.125c0 18.4902 -13.1455 37.2461 -27.0654 57.0977c-11.124 15.8838 -22.6455 32.3066 -28.5576 50.5234c-6.17578 19.0195 -6.61035 39.6162 -7.04492 59.542
c-0.509766 23.7617 -0.982422 46.209 -11.1816 60.2139c-10.3496 14.2217 -31.6934 21.626 -54.2646 29.4551c-18.7363 6.49707 -38.0957 13.2207 -54.0928 24.8555c-15.7529 11.4746 -27.9912 27.6895 -39.8154 43.376c-14.4678 19.209 -28.1416 37.3594 -45.2158 42.9033
c-14.9209 4.87207 -36.8311 -1.04004 -59.7607 -7.97949c-19.3408 -5.82715 -39.3428 -11.8525 -59.8164 -11.8525c-20.4551 0 -40.4756 6.02539 -59.8164 11.8613c-22.9297 6.91309 -44.8193 12.7959 -59.7607 7.98926
c-17.0742 -5.54297 -30.749 -23.6943 -45.2158 -42.9131c-11.8242 -15.6865 -24.0439 -31.9102 -39.834 -43.3848c-15.9795 -11.6348 -35.3379 -18.3496 -54.0752 -24.8457c-22.5713 -7.8291 -43.8945 -15.2236 -54.2646 -29.4639
c-10.1797 -14.0059 -10.6719 -36.4434 -11.1816 -60.2041c-0.415039 -19.9268 -0.868164 -40.5332 -7.04492 -59.5615c-5.91211 -18.1982 -17.4141 -34.6211 -28.5576 -50.4961c-13.9209 -19.8604 -27.0654 -38.6162 -27.0654 -57.1162
c0 -18.5098 13.1455 -37.2646 27.0654 -57.125c11.1436 -15.876 22.6455 -32.2988 28.5576 -50.5146c6.17578 -19.0205 6.61035 -39.6162 7.04492 -59.543c0.509766 -23.7607 0.982422 -46.1992 11.1816 -60.1855c10.3691 -14.25 31.6934 -21.6455 54.2646 -29.4736
c18.7363 -6.49805 38.0957 -13.2119 54.0928 -24.8467c15.752 -11.4824 27.9717 -27.6982 39.7959 -43.3838c14.4873 -19.2188 28.1611 -37.3691 45.2354 -42.9131c14.9209 -4.83496 36.8125 1.06738 59.7607 7.98926c19.3408 5.83594 39.3623 11.8613 59.8174 11.8613v0z
M373.926 260.104c-10.6914 0 -19.3408 8.66016 -19.3408 19.3408v232.089c0 10.6816 8.64941 19.3418 19.3408 19.3418c10.6904 0 19.3408 -8.66016 19.3408 -19.3418v-232.089c0 -10.6807 -8.65039 -19.3408 -19.3408 -19.3408zM557.983 243.53
c-25.8379 0 -50.127 10.0566 -68.3916 28.3115c-37.6992 37.7188 -37.6992 99.0654 0 136.774c18.2646 18.2734 42.5537 28.3311 68.3916 28.3311c25.8193 0 50.1094 -10.0576 68.373 -28.3311c37.6807 -37.708 37.6807 -99.0557 0 -136.764
c-18.2646 -18.2656 -42.5537 -28.3232 -68.373 -28.3232v0.000976562v0.000723438zM557.983 398.267c-15.5059 0 -30.0684 -6.03516 -41.042 -16.999c-22.6279 -22.627 -22.6279 -59.4385 0 -82.0664c21.8906 -21.8994 60.1387 -21.9277 82.0664 0.00976562
c22.6084 22.6172 22.6084 59.4297 0 82.0557c-10.9746 10.9648 -25.5361 17 -41.0244 16.9999zM557.966 398.257c19.9453 0 38.6631 7.75293 52.752 21.8438c14.0908 14.0908 21.8535 32.8271 21.8535 52.7627c0 19.9258 -7.7627 38.6621 -21.8535 52.7432
c-28.1416 28.1797 -77.3252 28.1885 -105.486 0.00878906c-14.0908 -14.0908 -21.8535 -32.8271 -21.8535 -52.7529c0 -19.9355 7.7627 -38.6719 21.8535 -52.7627c14.0908 -14.0898 32.8076 -21.8428 52.734 -21.8429zM557.966 508.786
c9.59473 0 18.623 -3.73926 25.4033 -10.5381c6.78027 -6.78125 10.5205 -15.791 10.5205 -25.3848c0 -9.60352 -3.74023 -18.623 -10.5205 -25.4131c-13.543 -13.5518 -37.208 -13.5898 -50.7881 0c-6.78027 6.78906 -10.5195 15.8086 -10.5195 25.4131
c0 9.59375 3.73926 18.6025 10.5195 25.3936c6.78027 6.79004 15.8096 10.5293 25.3848 10.5293zM284.418 -199.977c-6.55371 0 -12.7305 3.33203 -16.2998 8.93262l-60.4971 94.7588l-107.262 -33.6953c-6.98828 -2.19043 -14.6768 -0.246094 -19.7764 5.09082
c-5.08008 5.31641 -6.72363 13.0605 -4.19238 19.9736l72.0557 197.979c3.64551 10.0293 14.7891 15.1855 24.7803 11.5684c10.0479 -3.65527 15.2236 -14.751 11.5596 -24.791l-58.665 -161.176l84.0312 26.3945c8.34863 2.63574 17.3955 -0.689453 22.0986 -8.04688
l47.3887 -74.2275l37.9834 104.335c3.64551 10.0283 14.8076 15.2324 24.7803 11.5586c10.0479 -3.64551 15.2236 -14.751 11.5586 -24.7803l-51.374 -141.146c-2.5127 -6.92188 -8.74512 -11.8135 -16.0537 -12.6162
c-0.71875 -0.0751953 -1.41797 -0.112305 -2.11621 -0.112305v-0.000976562zM715.582 -199.978c-0.698242 0 -1.39844 0.0361328 -2.11621 0.111328c-7.30859 0.802734 -13.542 5.69434 -16.0537 12.6162l-51.374 141.147c-3.66504 10.0293 1.51074 21.1348 11.5586 24.7803
c10.0107 3.68359 21.1348 -1.51953 24.7803 -11.5586l37.9834 -104.335l47.3887 74.2275c4.70312 7.35742 13.7881 10.6816 22.0986 8.04688l84.0303 -26.3945l-58.665 161.177c-3.66406 10.0391 1.51172 21.1338 11.5596 24.79
c9.99121 3.62598 21.1348 -1.53027 24.7803 -11.5684l72.0557 -197.979c2.53125 -6.91406 0.887695 -14.6572 -4.19238 -19.9736c-5.08105 -5.33594 -12.7686 -7.28125 -19.7764 -5.09082l-107.262 33.6953l-60.4971 -94.7588
c-3.56836 -5.60156 -9.74512 -8.93457 -16.2988 -8.93457v0.000976562z" />
    <glyph glyph-name="unie015" unicode="&#xe015;" 
d="M178.399 294.719c12.1035 0 21.8965 9.79004 21.8965 21.8936s-9.79395 21.8975 -21.8965 21.8975h-59.0176c-12.1035 0 -21.8965 -9.79395 -21.8965 -21.8975c0 -12.1025 9.79297 -21.8936 21.8965 -21.8936h59.0176zM952.086 316.611
c0 -72.3584 -18.3486 -140.441 -49.4824 -200.655v0.170898c-2.74023 -7.39941 -9.66602 -12.7441 -18.0498 -12.7441c-10.6484 0 -19.3311 8.68066 -19.3311 19.4141c0 1.96582 0.599609 3.71973 1.11328 5.55957v0.342773c29.251 55.2119 44.9062 118.035 44.9062 184.834
c0 218.708 -177.312 396.018 -395.976 396.018c-218.665 0 -395.889 -177.31 -395.889 -396.018c0 -218.618 177.225 -395.93 395.889 -395.93c87.7578 0 168.543 28.9102 234.189 77.2363h0.213867c3.5498 3.71875 8.46777 5.90137 14.0264 5.90137
c10.7354 0 19.417 -8.68359 19.417 -19.375c0 -4.91797 -1.96777 -9.23633 -5.00293 -12.7002c-73.3438 -55.5527 -164.137 -89.2959 -263.227 -89.2959c-241.545 0 -437.244 195.741 -437.244 437.241c0 241.503 195.699 437.245 437.244 437.245
c241.458 0 437.2 -195.742 437.2 -437.245h0.00195312zM682.014 288.712h-208.015v317.494c0 12.1035 9.79297 21.8975 21.8965 21.8975c12.0996 0 21.8945 -9.79395 21.8945 -21.8975v-273.707h164.224c12.1035 0 21.8975 -9.79297 21.8975 -21.8955
c0 -12.0996 -9.79395 -21.8916 -21.8975 -21.8915zM922.875 288.712h-62.0127c-12.1016 0 -21.8955 9.79199 -21.8955 21.8926c0 12.1025 9.79395 21.8955 21.8955 21.8955h62.0127c12.1006 0 21.8945 -9.79297 21.8945 -21.8955
c0.000976562 -12.1006 -9.79297 -21.8926 -21.8945 -21.8926zM503.163 -112.741c12.1055 0 21.8984 9.79199 21.8984 21.8955v58.3994c0 12.1016 -9.79395 21.8955 -21.8984 21.8955c-12.0996 0 -21.8936 -9.79395 -21.8936 -21.8955v-58.3994
c0 -12.1025 9.79395 -21.8955 21.8936 -21.8955z" />
    <glyph glyph-name="unie016" unicode="&#xe016;" 
d="M898.844 0.890625c6.23242 0 11.2637 -4.90332 11.2637 -11.0068v-28.5625c0 -6.08887 -5.03125 -10.9883 -11.2637 -10.9883h-78.2227v-76.3701c0 -6.03809 -5.03027 -10.9893 -11.2627 -10.9893h-29.2764c-6.19141 0 -11.2129 4.95117 -11.2129 10.9893v76.3691
h-78.2344c-6.23145 0 -11.2617 4.89941 -11.2617 10.9883v28.5625c0 6.10449 5.03125 11.0078 11.2617 11.0078h78.2334v76.3506c0 6.05371 5.02246 10.9883 11.2129 10.9883h29.2764c6.2334 0 11.2627 -4.93359 11.2627 -10.9883v-76.3506zM785.152 148.978
c-13.3945 -14.2891 -35.9102 -15.043 -50.1973 -1.64941c-61.2285 57.3994 -140.573 89.8877 -224.229 92.0342c-2.93945 -0.0947266 -5.91895 -0.192383 -8.89941 -0.192383c-2.97949 0 -5.9668 0.0966797 -8.94727 0.192383
c-183.867 -4.77539 -331.963 -155.842 -331.963 -340.824c0 -19.623 -15.915 -35.5635 -35.5156 -35.5635s-35.5078 15.9404 -35.5078 35.5635c0 176.7 111.874 327.784 268.508 386.159c-63.9668 45.1689 -105.819 119.661 -105.819 203.765
c0 137.459 111.804 249.245 249.245 249.245c137.459 0 249.284 -111.787 249.284 -249.245c0 -84.0557 -41.7881 -158.508 -105.731 -203.667c50.7754 -18.873 97.7217 -47.7559 138.124 -85.627c14.3301 -13.4414 15.041 -35.9004 1.65039 -50.1904h-0.000976562z
M509.476 310.377c94.7412 4.00391 170.61 82.3662 170.611 178.084c0 98.2979 -79.9629 178.221 -178.261 178.221c-98.2812 0 -178.22 -79.9229 -178.22 -178.221c0 -95.8066 75.917 -174.128 170.738 -178.084c2.49902 0.0478516 4.99023 0.0878906 7.48047 0.0878906
c2.5791 0 5.11816 -0.0400391 7.64941 -0.0878906h0.000976562h0.00114344zM509.475 310.377z" />
    <glyph glyph-name="unie017" unicode="&#xe017;" 
d="M358.1 453.659c17.4531 -3.94141 26.5713 -7.1543 13.0889 -27.6719c-44.6768 -67.9766 -65.7412 -143.541 -66.3945 -224.847c-0.0996094 -12.1709 3.66504 -25.3418 -16.0645 -27.8887c-40.5703 -5.24121 -70.0586 -28.0352 -91.835 -66.4531
c-44.3887 90.0469 -48.8125 176.912 -8.27734 264.396c32.1885 69.4648 95.2832 99.2295 169.482 82.4648v0zM345.6 418.746c9.37109 16.0879 4.06543 19.4414 -11.458 21.3408c-51.8594 6.37109 -100.412 -18.6641 -125.548 -68.9521
c-35.8818 -71.7773 -41.3877 -145.671 -8.37012 -225.783c22.9121 21.9766 46.041 38.0117 74.7764 43.5889c13.8057 2.68164 11.9766 13.4053 12.2471 22.9648c2.09961 73.8525 21.2061 143.035 58.3525 206.841v0zM310.889 77.3398
c50.3467 -29.6172 100.952 -58.8057 154.693 -90.0293c-36.2588 -28.0117 -69.7412 -53.876 -105.5 -81.5c-1.09961 11.4297 -1.88184 19.5 -2.95215 30.5771c-19.0361 -14.8242 -35.7119 -27.8184 -54.5537 -42.4941c-6.72363 26.4521 5.41797 49.8115 1.6416 76.7471
c-11.624 -6.30078 -20.6006 -11.165 -32.665 -17.7061c8.05273 40.5586 15.6299 77.6465 22.665 114.835c2 10.5586 4.27637 16.8652 16.6709 9.57031v0zM382.259 -53.2773c17.124 11.123 33.7764 22.8057 49.624 39.6055
c-25.8945 15.0947 -50.2949 29.3359 -74.7119 43.5537c-52.7412 30.7109 -53.6357 30.1758 -56.1709 -33.2949c10.9473 2.00586 13.2939 3.54199 24.459 6.15332c3.45898 -2.01172 -2.31738 -42.9766 -3.80566 -70.5996c20.0234 15.9756 34.376 27.4229 48.7236 38.8701
c7.28809 3.25293 7.28809 3.25293 11.8819 -24.2881zM771.069 488.436c6.12402 -125.488 -49.3936 -232.193 -128.329 -329.775c-43.2939 -53.5234 -92.7002 -100.712 -147.07 -143.036c-14.8945 -11.5938 -25.7588 -11.7168 -41.3418 -2.16992
c-43.3584 26.5703 -87.4053 52.0703 -131.847 76.7939c-14.377 8 -18.835 17 -15.3467 32.9473c20.4873 93.7412 45.0938 186.3 82.7227 274.753c64.1475 150.782 188.636 226.135 338.883 269.3c19.2764 5.53516 19.4766 -7.07617 22.1357 -17.5
c13.0879 -51.3408 22.123 -103.3 20.1934 -161.312zM622.376 161.848c79.041 95.8477 137.105 200.224 130.93 323.506c1.42969 53.6709 -5.64648 99.9062 -16.0645 145.854c-2.98242 13.1641 -7.6416 18.6768 -21.7588 14.0703
c-132.823 -43.3408 -246.341 -110.994 -305.282 -245.582c-38.1475 -87.1064 -63.3594 -178.365 -83.4297 -271.212c-3.21191 -14.8525 1.12402 -21.0879 12.7998 -27.6709c39.1768 -22.0703 78.3652 -44.1943 116.595 -67.8408
c13.9883 -8.65332 23.0762 -8.03516 35.8643 2.28223c47.3887 38.2412 91.6123 79.624 130.348 126.594zM555.193 423.57c45.7295 -0.0820312 83.7881 -38.6465 83.3232 -84.4287c-0.458984 -45.9121 -39.1943 -84.6123 -84.1768 -84.1064
c-45.4404 0.511719 -83.6582 39.418 -83.376 84.8711c0.288086 45.9766 38.3115 83.7471 84.2296 83.664zM556.104 272.812c35.2061 0.741211 64.4004 30.9355 64.3359 66.5352c-0.0712891 37.0234 -30.6064 67.2705 -67.0469 66.4121
c-35.3535 -0.829102 -64.6885 -30.8115 -64.6592 -66.0762c0.0351562 -36.2295 31.6592 -67.624 67.3702 -66.8711zM709.718 204.589c10.2998 22.2891 17.8408 16.248 30.4121 3.50684c53.4229 -54.1523 61.4756 -123.446 19.4873 -187.472
c-52.8818 -80.6289 -128.976 -122.753 -228.882 -132.611c21.1172 38.7822 24.9004 75.8652 7.92383 113.076c-8.25879 18.1006 4.91113 21.8594 15.1934 28.3711c68.7002 43.4941 121.741 101.294 155.865 175.129zM741.265 180.584
c-9.81738 12.1768 -15.4697 14.9131 -24.1875 -1.53418c-34.5586 -65.2412 -83.2178 -118.006 -144.817 -158.794c-7.9707 -5.28223 -18.0469 -9.38867 -13.0293 -22.5293c10.4414 -27.3467 9.04102 -55.4531 2.48242 -86.5176
c85.4648 14.2764 145.306 57.9766 187.306 126.353c29.4238 47.9004 25.041 102.348 -7.75391 143.022z" />
    <glyph glyph-name="unie018" unicode="&#xe018;" 
d="M663.919 -70.1084h-326.208v742.931h326.208v-742.931zM373.968 -33.8516h253.695v670.416h-253.695v-670.416zM935.718 -52.0059h-235.592v36.3076h199.284v634.11h-199.284v36.3086h235.592v-706.727v0.0008zM301.505 -52.0059h-235.592v706.726h235.592v-36.3086
h-199.336v-634.11h199.336v-36.3066v-0.0008zM283.401 473.486h-126.872v36.2578h126.872v-36.2578zM283.401 364.767h-126.872v36.2568h126.872v-36.2568zM283.401 256.048h-126.872v36.2051h126.872v-36.2051zM573.253 473.486h-144.926v36.2578h144.925v-36.2578h0.001z
M573.253 364.767h-144.926v36.2568h144.925v-36.2568h0.001zM573.253 256.048h-144.926v36.2051h144.925v-36.2051h0.001zM845.102 473.486h-126.874v36.2578h126.874v-36.2578zM845.102 364.767h-126.874v36.2568h126.874v-36.2568zM845.102 256.048h-126.874v36.2051
h126.874v-36.2051zM500.789 38.6094c-39.9385 0 -72.4619 32.4727 -72.4619 72.5146c0 39.9375 32.5225 72.4609 72.4619 72.4609c39.9394 0 72.4639 -32.5234 72.4639 -72.4609c0 -40.042 -32.5244 -72.5146 -72.4639 -72.5146zM500.789 147.328
c-19.9424 0 -36.2041 -16.2617 -36.2041 -36.2041c0 -19.9961 16.2617 -36.2568 36.2041 -36.2568c19.9961 0 36.2588 16.2607 36.2588 36.2568c0 19.9424 -16.2627 36.2041 -36.2588 36.2041z" />
    <glyph glyph-name="unie019" unicode="&#xe019;" 
d="M761.917 270.917h-523.834c-16.083 0 -29.083 13 -29.083 29.083s13 29.083 29.083 29.083h523.834c16.083 0 29.083 -13 29.083 -29.083s-13 -29.083 -29.083 -29.083zM500 9c-16.083 0 -29.083 13 -29.083 29.083v523.834c0 16.083 13 29.083 29.083 29.083
s29.083 -13 29.083 -29.083v-523.834c0 -16.083 -13 -29.083 -29.083 -29.083zM797.167 -200h-594.417c-111.75 0 -202.75 90.917 -202.75 202.75v594.5c0 111.75 91 202.75 202.75 202.75h594.417c111.833 0 202.833 -91 202.833 -202.75v-594.5
c0 -111.833 -91 -202.75 -202.833 -202.75zM202.75 741.917c-79.75 0 -144.583 -64.917 -144.583 -144.667v-594.5c0 -79.75 64.833 -144.667 144.583 -144.667h594.417c79.75 0 144.666 64.917 144.666 144.667v594.5c0 79.75 -64.916 144.667 -144.666 144.667h-594.417z
" />
    <glyph glyph-name="unie01A" unicode="&#xe01a;" 
d="M890.43 599.512l-146.582 -219.238l165.43 -243.652h-126.953l-100.684 150.684l-45.4102 -67.8711h54.7852v-82.8125h-237.109l165.43 243.652l-146.68 219.238h122.363l86.6211 -127.539l86.5234 127.539zM344.336 865.331
c2.14844 0 4.29785 -0.0966797 6.44629 -0.0966797c166.406 0 332.715 0 499.121 0.0976562c4.00391 0 6.73828 -1.17188 9.47266 -4.00391c45.6055 -45.8008 91.3086 -91.4062 137.109 -137.109c2.24609 -2.24609 3.32031 -4.39453 3.32031 -7.71484
c-0.0976562 -94.1406 -0.0976562 -188.184 -0.0976562 -282.323v-5.17578h-73.6328v217.383h-144.824v144.727c-121.191 0.0976562 -241.798 0.0976562 -362.794 0.0976562v-725.195h217.676v-74.0234h-291.797v873.34v-0.00195312zM871.778 34.5703
c0 28.7109 0.000976562 57.3242 -0.0966797 86.0352c0.390625 -0.0976562 0.78125 -0.0976562 1.17188 -0.0976562h123.926c0.78125 0 1.46484 0.0976562 2.53906 0.195312v42.7734c43.0664 -28.7109 85.7422 -57.1289 128.516 -85.6445
c-42.9688 -28.7109 -85.5469 -57.0312 -128.711 -85.8398v42.6758h-16.6016c-36.9141 -0.0976562 -73.8281 -0.0976562 -110.742 -0.0976562h-0.000976562z" />
    <glyph glyph-name="unie01B" unicode="&#xe01b;" 
d="M843.75 643.75h-562.5c-69 0 -125 -56 -125 -125v-562.5c-69 0 -125 56 -125 125v562.5c0 69 56 125 125 125h562.5c69 0 125 -56 125 -125zM843.75 581.25c69 0 125 -56 125 -125v-500c0 -69 -56 -125 -125 -125h-500c-69 0 -125 56 -125 125v500c0 69 56 125 125 125
h500zM843.75 18.75v375c0 34.5625 -27.9375 62.5 -62.5 62.5h-375c-34.5 0 -62.5 -27.9375 -62.5 -62.5v-375c0 -34.5 28 -62.5 62.5 -62.5h187.5h187.5c34.5625 0 62.5 28 62.5 62.5zM656.25 18.75c0 -34.5625 -27.9375 -62.5 -62.5 -62.5
c-34.5 0 -62.5 27.9375 -62.5 62.5v161.625l-18.3125 -18.3125c-11.3125 -11.3125 -26.9375 -18.3125 -44.1875 -18.3125c-34.5 0 -62.5 28 -62.5 62.5c0 17.25 7 32.875 18.3125 44.1875l125 125c11.3125 11.3125 26.9375 18.3125 44.1875 18.3125
c17.1875 0 32.8125 -7 44.1875 -18.3125l125 -125c11.375 -11.3125 18.3125 -26.9375 18.3125 -44.1875c0 -34.5 -27.9375 -62.5 -62.5 -62.5c-17.1875 0 -32.875 7 -44.1875 18.3125l-18.3125 18.3125v-161.625z" />
    <glyph glyph-name="unie01c" unicode="&#xe01c;" 
d="M659.651 706.772c63.4023 0 106.773 -41.5674 106.773 -93.9727v-278.304v-7.22949l-328.905 -332.517l-5.41797 -5.42188h-234.935c-52.4062 0 -95.7793 26.5752 -95.7793 83.9775v633.466zM716.783 355.938l-0.000976562 243.36
c0 30.7217 -27.1064 57.0244 -57.8311 57.0244v-0.00390625l-10.9932 0.807617h-497.924v-559.901c0 -39.6816 15.293 -56.0254 57.8271 -56.0254h207.734zM503.313 28.6592l281.8 282.032l51.5635 -51.5625l51.5605 -51.5615l-281.916 -281.918l-128.309 -25.2988
l0.0263672 0.142578zM779.602 146.935l-27.6816 27.4365l-26.4844 25.6543l-188.261 -188.404l-14.5234 -67.6777l68.6191 14.6572zM839.531 206.916l-27.7451 27.4971l-26.4824 25.6553l-35.7412 -35.9141l26.4844 -25.6533l27.7432 -27.4971zM626.764 580.079
c11.0391 0 19.9863 -8.94824 19.9873 -19.9863v-76.9424c0 -11.0381 -8.94727 -19.9863 -19.9863 -19.9863h-385.718c-11.0381 0 -19.9863 8.94824 -19.9863 19.9863v76.9424c0 11.0381 8.94824 19.9863 19.9863 19.9863h385.717zM619.641 504.353l-0.000976562 36.3945
c0 5.2207 -5.16309 9.45312 -11.5293 9.45312h-348.408c-6.36621 0 -11.5293 -4.23242 -11.5293 -9.45312v-36.3945c0 -5.22168 5.16309 -9.4541 11.5293 -9.4541h348.409c6.36621 0 11.5293 4.23242 11.5293 9.4541zM616.732 413.192l-28.5947 -29.8799l-83.2871 -87.0352
h-40.1621h-223.644c-11.0381 0 -19.9863 8.94824 -19.9863 19.9863v76.9424c0 11.0381 8.94824 19.9863 19.9863 19.9863h334.9h40.7861h0.000976562zM494.886 328.011l52.627 55.3027h-287.812c-6.36621 0 -11.5293 -4.23242 -11.5293 -9.45312v-36.3945
c0 -5.22266 5.16309 -9.45508 11.5293 -9.45508h235.185zM470.831 246.307l-111.881 -116.915h-40.1631h-77.7412c-11.0391 0 -19.9863 8.94824 -19.9863 19.9863v76.9424c0 11.0381 8.94727 19.9863 19.9863 19.9863h188.999h40.7863zM348.985 161.124l52.626 55.3027
h-141.91c-6.36719 0 -11.5293 -4.23242 -11.5293 -9.4541v-36.3936c0 -5.22266 5.16211 -9.45508 11.5293 -9.45508z" />
    <glyph glyph-name="unie01d" unicode="&#xe01d;" 
d="M927.268 83.8184c3.98145 -35.2832 8.09668 -71.7646 13.2559 -106.437c6.15723 -41.3975 -6.74707 -79.2461 -36.335 -106.58c-20.5664 -19 -42.251 -26.6904 -46.3906 -28.04l-6.01367 -1.95898h-688.042l-8.12988 3.87793
c-40.9404 19.5244 -67.9863 54.9365 -72.3477 94.7236c-2.72656 24.8877 1.63672 73.624 61.5039 120.408c23.2988 18.2256 37.5996 79.9307 37.3311 155.791c-24.1328 1.00586 -44.1279 11.8467 -55.2285 30.1074c-11.2119 18.4443 -11.3564 41.1475 -0.396484 62.2832
l81.9209 158.219c8.17773 15.8057 22.4863 30.167 40.2861 40.4307c17.2334 9.9375 36.626 15.4111 54.6064 15.4111h108.954v192.022c0 42.8779 36.5986 77.7627 81.5859 77.7627h83.5439c44.9873 0 81.5869 -34.8848 81.5869 -77.7627v-192.023h103.817
c17.9785 0 37.3711 -5.47168 54.6045 -15.4082c17.792 -10.2568 32.1035 -24.6094 40.2979 -40.4121l81.9248 -158.264c10.9463 -21.1133 10.8018 -43.8145 -0.412109 -62.2588c-7.00684 -11.5264 -17.5596 -20.0947 -30.457 -25.1045
c7.75391 -41.29 13.0332 -88.0449 18.5322 -136.789zM279.11 429.61l-69.6201 -134.462h647.088l-69.6025 134.458c-2.49219 4.80762 -15.1484 12.8223 -24.1992 12.8223h-183.444v269.428c-0.466797 0.19043 -1.12305 0.357422 -1.95898 0.357422h-83.5439
c-0.835938 0 -1.49219 -0.166016 -1.95801 -0.354492v-269.432h-188.583c-9.04688 0 -21.6816 -7.99609 -24.1768 -12.8174h-0.000976562zM851.529 -69.3877c9.2998 9.30762 12.4551 20.1182 10.2344 35.0576c-5.36719 36.0596 -9.56348 73.2549 -13.6221 109.226
c-5.67383 50.2861 -11.0967 98.3594 -19.0645 138.275h-567.401c-0.0380859 -24.7451 -1.40332 -54.6787 -5.96289 -84.6992c-9.4873 -62.4736 -30.3135 -106.677 -61.8984 -131.385c-21.8447 -17.0693 -32.9893 -34.4678 -31.3965 -49.002
c1.10645 -10.0908 8.73438 -20.2422 20.4355 -27.6494h78.8701c18.9932 25.9883 55.2578 80.5908 67.5479 133.663c2.50977 14.7627 4.04395 24.6348 4.05957 24.7354l79.0186 -9.42676c-0.774414 -9.23633 -2.3457 -19.04 -4.93848 -30.7715
c-4.35449 -25.5117 -11.0244 -62.5068 -18.3701 -95.8203c-1.81445 -8.22656 -3.53711 -15.6562 -5.18457 -22.3809h3.18262c18.9922 25.9854 55.2568 80.585 67.5469 133.664c2.51172 14.7617 4.0459 24.6338 4.06152 24.7344l79.0176 -9.43066
c-0.775391 -9.24609 -2.34766 -19.0469 -4.93848 -30.7686c-4.35547 -25.5098 -11.0244 -62.5029 -18.3721 -95.8193c-1.81445 -8.22656 -3.53711 -15.6562 -5.18457 -22.3809h23.6377c18.9746 25.9336 55.2031 80.4414 67.5439 133.645
c2.51074 14.8594 4.0918 24.7969 4.1084 24.8975l78.9951 -9.57031c-0.780273 -9.31738 -2.35938 -19.127 -4.96094 -30.792l-0.00878906 -0.0439453c-4.32422 -25.3916 -10.9609 -62.2549 -18.3496 -95.7559c-1.81055 -8.21777 -3.53809 -15.6484 -5.19434 -22.3809
h24.0674c18.9746 25.9277 55.2002 80.4238 67.5449 133.643c2.50977 14.8604 4.09082 24.7988 4.10645 24.8994l78.9961 -9.57031c-0.780273 -9.32031 -2.35938 -19.1299 -4.95898 -30.7871l-0.00976562 -0.0498047c-9.22949 -54.207 -17.0342 -91.7969 -23.5898 -118.136
h36.2305c3.7998 1.94531 9.2998 5.27344 14.2012 10.1807v0z" />
    <glyph glyph-name="unie01e" unicode="&#xe01e;" 
d="M895.277 544.174c12.834 0 23.2598 -10.4014 23.2598 -23.2559v-627.876c0 -51.3672 -41.6523 -93.0186 -93.0244 -93.0186h-651.157c-51.3945 0 -93.0234 41.6514 -93.0234 93.0186v634.121c0.242188 -0.140625 0.49707 -0.262695 0.741211 -0.398438
c2.59375 10.0186 11.7012 17.4092 22.5137 17.4092c12.832 0 23.2568 -10.4033 23.2568 -23.2559v-627.877c0 -25.6631 20.8242 -46.5107 46.5107 -46.5107h651.157c25.6836 0 46.5137 20.8477 46.5137 46.5107v627.877c0 12.8545 10.4258 23.2559 23.2519 23.256z
M337.146 -13.9385c0 -12.832 -10.4277 -23.2568 -23.2568 -23.2549c-12.8311 0 -23.2559 10.4229 -23.2559 23.2559v511.602c0 12.8555 10.4238 23.2549 23.2559 23.2549c12.8291 0 23.2568 -10.4004 23.2568 -23.2549v-511.603zM709.234 -13.9385
c0 -12.832 -10.4229 -23.2559 -23.2539 -23.2549c-12.832 0 -23.2578 10.4229 -23.2578 23.2559v511.602c0 12.8555 10.4238 23.2549 23.2578 23.2549c12.832 0 23.2539 -10.4004 23.2539 -23.2549v-511.603zM965.184 706.958c12.8301 0 23.2559 -10.4043 23.2549 -23.2549
c0 -12.8311 -10.4248 -23.2559 -23.2549 -23.2559h-279.068c-0.391602 0 -0.779297 0.00976562 -1.16602 0.0283203c-6.52148 -0.166016 -13.0957 2.2168 -18.0703 7.19141l-85.7998 85.7979h-162.152l-85.7988 -85.7979
c-4.97559 -4.97266 -11.5508 -7.35645 -18.0713 -7.19141c-0.387695 -0.0175781 -0.774414 -0.0283203 -1.16602 -0.0283203h-279.067c-12.8311 0 -23.2568 10.4238 -23.2568 23.2559c0 12.8516 10.4248 23.2549 23.2568 23.2549h267.827l85.7988 85.7959
c4.90137 4.90137 11.3574 7.29395 17.7852 7.20508c0.226562 0.00585938 0.450195 0.0175781 0.679688 0.0175781h186.043c0.258789 0 0.512695 -0.0126953 0.768555 -0.0205078c6.44336 0.102539 12.918 -2.28906 17.8311 -7.20312l85.7988 -85.7949zM523.193 -13.9385
c0 -12.832 -10.4277 -23.2568 -23.2598 -23.2549c-12.8291 0 -23.2539 10.4229 -23.2539 23.2559v511.602c0 12.8555 10.4248 23.2549 23.2539 23.2549c12.832 0 23.2598 -10.4004 23.2598 -23.2549v-511.603z" />
    <glyph glyph-name="unie01f" unicode="&#xe01f;" 
d="M375 112.5h62.5v312.5c0 37.5 25 62.5 62.5 62.5s62.5 -25 62.5 -62.5v-312.5h62.5c25 0 50 -12.5 56.25 -37.5c12.5 -25 6.25 -50 -12.5 -68.75l-125 -125c-12.5 -12.5 -25 -18.75 -43.75 -18.75s-31.25 6.25 -43.75 18.75l-125 125c-18.75 18.75 -25 43.75 -12.5 68.75
c6.25 25 31.25 37.5 56.25 37.5zM812.5 737.5c68.75 0 125 -56.25 125 -125v-625c0 -68.75 -56.25 -125 -125 -125h-62.5v62.5h62.5c37.5 0 62.5 25 62.5 62.5v625c0 37.5 -25 62.5 -62.5 62.5h-625c-37.5 0 -62.5 -25 -62.5 -62.5v-625c0 -37.5 25 -62.5 62.5 -62.5h62.5
v-62.5h-62.5c-68.75 0 -125 56.25 -125 125v625c0 68.75 56.25 125 125 125h625z" />
    <glyph glyph-name="unie020" unicode="&#xe020;" 
d="M495.74 175.554c-13.7178 0 -26.625 5.32324 -36.3311 14.9932l-143.018 143.04c-5.41113 5.41113 -8.38965 12.6045 -8.38965 20.2539s2.97949 14.8447 8.38965 20.2539s12.6035 8.3877 20.2539 8.3877s14.8447 -2.97754 20.2539 -8.3877l138.83 -138.844
l138.86 138.844c5.41113 5.41113 12.6035 8.3877 20.2539 8.3877s14.8447 -2.97754 20.2539 -8.3877c11.1699 -11.1699 11.1699 -29.3379 0 -40.5117l-143.013 -143.002c-9.69336 -9.69238 -22.6006 -15.0293 -36.3486 -15.0293zM495.743 181.257
c15.7988 0 28.6455 12.8477 28.6455 28.6455v363.651c0 15.7988 -12.8486 28.6455 -28.6455 28.6455s-28.6426 -12.8506 -28.6426 -28.6455v-363.651c0 -15.7998 12.8496 -28.6455 28.6426 -28.6455zM283.612 -46.0312c-65.9277 0 -119.56 53.6338 -119.56 119.56v333.348
c0 65.9268 53.6338 119.56 119.56 119.56c15.793 0 28.6426 -12.8457 28.6426 -28.6426s-12.8457 -28.6426 -28.6426 -28.6426c-34.3398 0 -62.2725 -27.9355 -62.2725 -62.2725v-333.348c0 -34.3369 27.9346 -62.2725 62.2725 -62.2725h424.264
c34.3369 0 62.2725 27.9355 62.2725 62.2725v333.348c0 34.3369 -27.9355 62.2725 -62.2725 62.2725c-15.793 0 -28.6426 12.8457 -28.6426 28.6426c0 15.7969 12.8457 28.6426 28.6426 28.6426c65.9277 0 119.56 -53.6338 119.56 -119.56v-333.348
c0 -65.9277 -53.6338 -119.56 -119.56 -119.56z" />
    <glyph glyph-name="unie021" unicode="&#xe021;" 
d="M925.586 727.441c-6.64062 0 -12.5 2.34375 -17.4805 7.03125s-9.17969 10.3516 -12.5 16.9922s-5.85938 13.4766 -7.51953 20.5078s-2.53906 12.793 -2.53906 17.4805v123.828h1.95312c5.37109 0 10.8398 -0.878906 16.5039 -2.53906s12.3047 -4.78516 20.0195 -9.47266
c7.61719 -4.6875 16.9922 -11.5234 27.9297 -20.5078c11.0352 -8.98438 24.8047 -20.8008 41.5039 -35.4492c17.9688 -16.0156 32.1289 -29.5898 42.4805 -40.918s18.3594 -20.8008 24.0234 -28.5156s9.17969 -14.1602 10.4492 -19.4336
c1.36719 -5.37109 1.95312 -9.96094 1.95312 -13.9648v-14.9414zM1041.5 352.832c30.6641 0 59.2773 -5.66406 85.9375 -16.9922s49.9023 -26.9531 69.9219 -46.9727s35.6445 -43.2617 46.9727 -69.9219s16.9922 -55.2734 16.9922 -85.9375
s-5.66406 -59.2773 -16.9922 -85.9375s-26.9531 -49.9023 -46.9727 -69.9219s-43.2617 -35.6445 -69.9219 -46.9727c-26.6602 -11.3282 -55.2734 -16.9922 -85.9375 -16.9922c-29.9805 0 -58.3008 5.66406 -84.9609 16.9922s-49.9023 26.9531 -69.9219 46.9727
s-35.8398 43.2617 -47.4609 69.9219c-11.6211 26.6602 -17.4805 55.2734 -17.4805 85.9375s5.85938 59.2773 17.4805 85.9375s27.4414 49.9023 47.4609 69.9219s43.2617 35.6445 69.9219 46.9727s54.9805 16.9922 84.9609 16.9922zM1166.41 98.1445
c5.95703 0 11.3281 3.32031 16.0156 9.96094s7.03125 14.6484 7.03125 24.0234c0 9.375 -2.34375 17.2852 -7.03125 24.0234c-4.6875 6.64062 -9.96094 9.96094 -16.0156 9.96094h-94.9219v87.8906c0 5.37109 -2.83203 9.96094 -8.49609 13.9648
s-13.4766 5.95703 -23.4375 5.95703s-17.4805 -1.95312 -22.4609 -5.95703s-7.51953 -8.69141 -7.51953 -13.9648v-109.863c-1.36719 -5.37109 -1.95312 -9.27734 -1.95312 -12.0117c0 -9.27734 2.34375 -17.2852 7.03125 -24.0234
c4.6875 -6.64062 9.96094 -9.96094 16.0156 -9.96094c-0.195312 0 135.742 0 135.742 0v0zM756.738 162.988c-0.683594 -4.6875 -0.975586 -9.27637 -0.975586 -13.9639v-14.9414c0 -29.9805 4.29688 -58.3008 12.9883 -84.9609s20.6055 -51.6602 35.9375 -74.9023h-353.613
c-12.6953 0 -26.4648 3.71094 -41.5039 11.0352c-14.9414 7.32422 -29.0039 16.9922 -41.9922 29.0039s-23.8281 25.6836 -32.4219 40.918c-8.69141 15.332 -12.9883 31.3477 -12.9883 47.9492v681.25c0 13.9648 3.32031 28.5156 9.96094 43.457
c6.73828 15.0391 15.4297 28.8086 26.0742 41.5039s22.9492 23.1445 37.0117 31.4453c13.9648 8.30078 28.6133 12.5 43.9453 12.5h382.617v-124.902c0 -13.2812 1.95312 -27.1484 5.95703 -41.5039s10.3516 -27.832 18.9453 -40.4297
c8.69141 -12.6953 19.6289 -22.9492 33.0078 -30.957c13.2812 -8.00781 29.0039 -12.0117 46.9727 -12.0117h145.898v-248.73c-5.37109 1.36719 -11.0352 1.95312 -16.9922 1.95312h-17.9688c-49.9023 0 -95.6055 -11.6211 -136.816 -34.9609
c-41.3086 -23.3398 -74.6094 -54.5898 -99.9023 -93.9453h-290.82c-17.2852 0 -32.1289 -5.95703 -44.4336 -17.9688s-18.457 -26.6602 -18.457 -43.9453s6.15234 -32.1289 18.457 -44.4336s27.1484 -18.457 44.4336 -18.457h246.68zM510.061 538.673
c-17.2852 0 -32.1289 -6.15234 -44.4336 -18.457s-18.457 -27.1484 -18.457 -44.4336s6.15234 -31.9336 18.457 -43.9453s27.1484 -17.9688 44.4336 -17.9688h374.609c17.2852 0 31.9336 5.95703 43.9453 17.9688s17.9688 26.6602 17.9688 43.9453
s-5.95703 32.1289 -17.9688 44.4336c-12.0118 12.3047 -26.6602 18.457 -43.9453 18.457z" />
    <glyph glyph-name="unie022" unicode="&#xe022;" 
d="M60.1338 193.262v117.978c0 10.8105 8.87695 19.6514 19.7549 19.6514h208.474l-90.7666 -157.288h-117.708c-10.877 0 -19.7539 8.81152 -19.7539 19.6602v-0.000976562zM208.638 -48.3154l-66.5303 -45.0752c-8.95215 -6.09375 -15.2832 -2.22559 -14.042 8.51074
l8.87695 77.1299c1.23633 10.7344 9.94824 15.1328 19.3672 9.75488l51.4893 -29.4141c9.40527 -5.39746 9.79199 -14.8496 0.83885 -20.9062zM224.613 -4.8457l-51.4883 29.4141c-9.41406 5.39648 -12.7314 17.4531 -7.25488 26.8301l238.421 413.288
c5.40527 9.39551 17.6035 12.6895 27.0088 7.24512l51.4893 -29.3564c9.41504 -5.44336 12.6592 -17.5098 7.25391 -26.8672l-238.417 -413.327c-5.40039 -9.37695 -17.6035 -12.5859 -27.0127 -7.22656v0zM406.074 173.602l90.7617 157.287h52.2627l73.7061 -157.287
h-216.729h-0.000976562h-0.000523438zM701.688 126.658c-20.6123 10.2822 -123.271 246.098 -149.57 307.625c-26.3301 61.5254 -105.836 225.303 -80.1211 238.038c18.3008 9.1416 83.9785 -119.825 133.213 -197.238c49.1689 -77.4326 151.986 -277.065 164.638 -299.803
c12.584 -22.791 -12.1133 -41.791 -25.8486 -47.4697c-13.7451 -5.7002 -21.707 -11.3604 -42.3096 -1.15234h-0.000976562zM769.147 18.2656l-31.0176 48.791c-6.41504 10.1328 -3.08496 22.6611 7.32031 28.0186l29.5645 15.1328
c10.4258 5.30078 23.4717 1.01855 29.0186 -9.60449l24.4707 -46.8477c5.56543 -10.6016 1.77246 -24.2061 -8.26465 -30.1865l-21.1406 -12.585c-10.0361 -6.07617 -23.5361 -2.77344 -29.9512 7.28125v0zM883.305 -109.692
c-6.48047 20.6602 -55.96 22.0381 -78.1104 53.1689c-22.2256 31.0186 -3.8584 46.9971 3.85742 54.375c89.8477 50.377 74.2529 -107.544 74.253 -107.544zM929.539 193.262c0 -10.8486 -8.87598 -19.6602 -19.7539 -19.6602h-104.354
c-1.15039 6.05469 -3.01953 12.1309 -6.16992 17.8115c-2.71777 4.84863 -9.58496 17.8848 -19.1504 36.0918c-13.8105 26.2627 -33.6504 63.8291 -54.8848 103.384h184.551c10.877 0 19.7539 -8.83984 19.7539 -19.6514v-117.977h0.00878906v0.000976562v0z" />
    <glyph glyph-name="unie023" unicode="&#xe023;" 
d="M467.999 -114.458c-22.5557 4.05078 -45.3799 6.99121 -67.6221 12.3467c-169.972 40.8848 -297.099 188.95 -312.804 363.148c-8.20215 90.9844 11.3428 175.468 58.0918 253.755c2.52637 4.22754 6.64453 7.50684 11.9102 10.0605
c-58.4844 -96.5273 -78.8506 -199.591 -55.5234 -309.654c23.3398 -110.119 83.9746 -195.903 177.851 -257.562c152.139 -99.9258 353.701 -83.2539 493.06 40.3105c136.409 120.949 186.224 343.374 70.3936 527.525c3.28223 -2.82031 7.52051 -5.04688 9.70312 -8.55176
c31.9502 -51.3486 52.1484 -107.168 58.4414 -167.207c14.1113 -134.585 -26.1152 -250.993 -122.448 -346.325c-68.9893 -68.2666 -152.964 -106.495 -249.83 -115.812c-3.2168 -0.30957 -6.36328 -1.33984 -9.54492 -2.03223
c-20.5596 -0.000976562 -41.1172 -0.000976562 -61.6768 -0.000976562h-0.000976562zM532.142 714.46c26.1299 -4.96289 52.752 -8.13672 78.2969 -15.207c94.9316 -26.2793 170.838 -80.3613 228.272 -160.364c1.87305 -2.60742 3.43555 -5.44043 5.14258 -8.16797
c-0.774414 -0.864258 -1.54785 -1.72852 -2.32129 -2.59375c-3.21191 2.59375 -7.16699 4.64453 -9.5293 7.86328c-62.3359 84.9004 -144.179 141.094 -247.562 162.019c-129.341 26.1777 -246.431 -2.7998 -347.42 -88.4824
c-25.7363 -21.835 -46.4209 -49.6084 -69.5742 -74.5137c-2.52441 -2.71484 -6.03711 -4.51562 -10.1631 -5.4248c18.0596 30.6553 40.9873 56.7637 67.2705 79.916c67.749 59.6768 146.447 94.3418 236.466 102.983c2.36719 0.227539 4.65332 1.29492 6.97754 1.97266z
M338.189 135.229c-6.51367 2.9668 -11.0303 4.73633 -15.2754 7.01172c-8.31152 4.45703 -16.5361 9.08789 -24.6816 13.8477c-11.7178 6.84277 -13.1689 12.1387 -6.25293 23.9746c18.418 31.5273 36.9629 62.9795 55.4951 94.4375
c33.3193 56.5566 66.6504 113.105 100.007 169.641c9.00195 15.2607 13.1709 16.3926 28.5625 7.88867c7.89844 -4.36523 15.7559 -8.80469 23.585 -13.2871c13.126 -7.51855 14.5518 -12.6123 6.7998 -25.7949c-33.6758 -57.2979 -67.4365 -114.547 -101.161 -171.814
c-18.1113 -30.7549 -36.0518 -61.6182 -54.4717 -92.1846c-3.10742 -5.15527 -8.25879 -9.07812 -12.6064 -13.7188v-0.000976562zM510.939 523.598c25.1953 5.33008 39.8516 -1.95508 52.21 -24.7207c42.6758 -78.6064 88.1309 -155.702 132.342 -233.477
c9.5957 -16.8818 6.99219 -26.625 -8.42871 -35.8906c-18.5762 -11.1582 -33.0332 -9.46582 -42.1074 7.10645c-15.751 28.7744 -31.1484 57.8242 -44.9336 87.5752c-28.624 61.7891 -56.1123 124.108 -84.0146 186.23c-1.81445 4.03906 -3.19531 8.27246 -5.06738 13.1748
v0.000976562zM372.45 364.504c-20.3584 -37.001 -39.3838 -71.8711 -58.8936 -106.468c-1.5127 -2.68066 -6.40918 -4.81445 -9.76855 -4.86719c-25.0566 -0.402344 -50.1221 -0.195312 -75.1855 -0.223633c-10.1064 -0.0166016 -15.2139 4.89062 -15.209 15.0527
c0.0078125 27.1172 0.0419922 54.2314 -0.0224609 81.3467c-0.0205078 9.38477 4.13477 15.0742 13.8145 15.1006c47.6299 0.128906 95.2607 0.0585938 145.266 0.0585938h-0.000976562zM669.735 364.506c43.5986 0 85.3926 0.0732422 127.188 -0.0576172
c8.84473 -0.0263672 13.8281 -5.04004 13.8906 -13.8477c0.194336 -27.499 0.138672 -54.999 0.0664062 -82.498c-0.0253906 -9.6875 -6.34766 -14.5664 -14.8174 -14.8232c-22.1455 -0.670898 -44.3223 -0.395508 -66.4824 -0.147461
c-2.27148 0.0224609 -5.64258 1.83594 -6.61035 3.76465c-15.9482 31.792 -31.5879 63.7354 -47.3018 95.6436c-1.60742 3.25977 -3.23047 6.51562 -5.93306 11.9657zM599.286 253.398h-146.16c4.75977 8.85742 8.89062 16.6846 13.1475 24.4434
c13.8047 25.1611 27.957 50.1396 41.3105 75.5371c4.30371 8.18457 9.33008 10.7744 18.7715 11.7441c18.042 1.85254 26.7695 -4.67285 33.2344 -21.502c11.5654 -30.1084 25.8555 -59.1768 39.6961 -90.2226zM779.295 71.7559
c-12.4785 5.90918 -21.0615 9.57129 -29.2549 13.9619c-7.52539 4.02832 -15.4102 7.9502 -21.7363 13.5117c-8.94824 7.85938 -14.6553 17.999 -10.3301 30.6162c3.18652 9.30078 17.1943 17.1934 29.1836 17.0391c13.1592 -0.163086 21.0156 -8.53906 23.6025 -19.7188
c4.01074 -17.3145 5.5625 -35.1982 8.53516 -55.4102v0zM711.796 144.51c-5.57031 4.38574 -10.4834 6.85742 -13.3896 10.8086c-7.0293 9.55664 -13.1719 19.7773 -19.5811 29.7861c-5.57129 8.70215 -3.53516 15.9268 5.38379 20.4658
c26.5293 13.502 31.4404 19.6875 46.8604 -12.582c1.41016 -2.9541 3.84766 -5.62891 4.46582 -8.70312c1.44043 -7.1709 5.46387 -17.1934 2.29395 -21.1982c-6.14941 -7.76465 -16.5303 -12.1826 -26.0333 -18.5772zM263.544 84.5801
c2.31152 18.2393 4.24316 35.3291 6.73047 52.335c1.09668 7.4873 6.13672 9.43848 12.6367 5.98047c11.5537 -6.15527 23.0303 -12.4727 34.2998 -19.1279c7.08398 -4.18457 7.5127 -9.63867 0.558594 -14.3896c-14.5303 -9.92676 -29.251 -19.584 -43.9795 -29.2168
c-6.62012 -4.32715 -9.68945 -1.61426 -10.2461 4.41895v0zM497.974 591.238c21.0488 -16.9814 31.292 -39.3389 46.2305 -61.8164c-12.0645 0 -21.9736 -0.123047 -31.877 0.119141c-1.66895 0.0410156 -4.44531 1.3584 -4.77148 2.59863
c-4.5293 17.2256 -8.78027 34.5273 -12.873 51.8633c-0.28418 1.20703 1.22461 2.83691 3.29098 7.23533z" />
    <glyph glyph-name="unie024" unicode="&#xe024;" 
d="M492.01 383.3l21.4512 -0.000976562c28.1943 0 42.2783 -12.0811 42.2783 -36.2705c0 -24.7637 -14.2295 -37.1523 -42.7188 -37.1523h-21.0107zM774.578 478.548h101.007v-341.748h-101.007v-218.719c0 -30.1973 -24.4824 -54.6797 -54.6797 -54.6797h-437.444
c-30.1963 0 -54.6797 24.4824 -54.6797 54.6797v218.719h-101.999v341.748h101.999v205.049c0 30.2109 24.4834 54.6797 54.6797 54.6797h437.444c30.1973 0 54.6797 -24.4697 54.6797 -54.6797v-205.049zM719.899 669.927h-437.445l0.00683594 -191.379h437.438z
M606.708 348.938c0 47.9648 -28.3008 71.9541 -84.875 71.9541h-78.2812v-227.463h48.459v79.2959h24.9629c25.6572 -0.587891 47.0166 6.1416 64.1035 20.1982c17.0869 14.043 25.6309 32.7197 25.6308 56.0148zM255.895 245.559h82.6748l17.0332 -52.1299h52.8643
l-81.6455 227.462h-56.9824l-83.2607 -227.462h52.5771zM501.181 -109.26c15.0977 0 27.3398 12.2422 27.3398 27.3398s-12.2422 27.3389 -27.3398 27.3389s-27.3535 -12.2412 -27.3535 -27.3389s12.2559 -27.3398 27.3535 -27.3398zM719.898 -27.2402l-0.000976562 164.039
h-437.438l-0.00683594 -164.039h437.445zM772.415 292.922c17.0869 14.043 25.6182 32.7197 25.6191 56.0146c0 47.9658 -28.2744 71.9541 -84.877 71.9541h-78.2549v-227.463h48.458v79.2959h24.9629c25.6445 -0.587891 47.0176 6.1416 64.0919 20.1984zM704.8 383.299
c28.1934 0 42.292 -12.082 42.291 -36.2715c0 -24.7637 -14.2568 -37.1523 -42.7461 -37.1523h-20.9844v73.4238h21.4395zM297.746 381.683c0.679688 -8.22266 1.85547 -14.8311 3.52441 -19.8242l25.8438 -78.8555h-60.6533l25.998 79.4424
c2.05566 6.16797 3.36523 12.5898 3.95117 19.2373h1.33592z" />
    <glyph glyph-name="unie025" unicode="&#xe025;" 
d="M500 727.5c39.3438 0 71.2188 -31.9072 71.2188 -71.251v-712.469c0 -39.3438 -31.875 -71.25 -71.2188 -71.25l-213.625 213.781h-151.406c-39.3438 0 -71.25 31.875 -71.25 71.25v71.2188v142.531v71.2188c0 39.3438 31.9062 71.25 71.25 71.25h151.406z
M241.812 152.499v284.969h-106.844v-71.2188v-142.5v-71.25h106.844v0v-0.0002zM313.062 442.561v-295.126l3.59375 -1.71875l183.344 -199.469v697.5l-183.344 -199.469zM671.5 475.467c-7.9375 0 -15.8438 3 -21.9375 9
c-12.2812 12.125 -12.4062 31.9062 -0.34375 44.1875l203.906 207c12.1562 12.3125 31.9062 12.4688 44.2188 0.34375c12.2812 -12.125 12.4062 -31.9062 0.34375 -44.1875l-203.875 -207c-6.15625 -6.21875 -14.2188 -9.34375 -22.3123 -9.34375zM876.969 -116.721
c-7.9375 0 -15.8438 3 -21.9375 8.96875l-207 203.875c-12.2812 12.125 -12.4062 31.9062 -0.34375 44.2188c12.1562 12.3125 31.9062 12.4062 44.2188 0.34375l207 -203.875c12.2812 -12.125 12.4062 -31.9062 0.34375 -44.2188
c-6.15625 -6.1875 -14.2188 -9.3125 -22.2813 -9.3125zM875 268.748h-218.75c-17.2812 0 -31.25 14 -31.25 31.25s13.9688 31.25 31.25 31.25h218.75c17.2812 0 31.25 -14 31.25 -31.25s-13.9688 -31.25 -31.25 -31.25zM-904.875 610.217z" />
    <glyph glyph-name="unie026" unicode="&#xe026;" 
d="M625 -33.333v41.666h83.333v-125c0 -51.791 -32.166 -83.333 -83.333 -83.333h-458.333c-51.167 0 -83.334 31.542 -83.334 83.333v833.334c0 51.791 32.167 83.333 83.334 83.333h458.333c51.167 0 83.333 -31.542 83.333 -83.333v-83.334h-83.333v41.667h-458.333
v-708.333zM250 591.667h666.667v-541.667h-666.667v541.667zM291.667 471.875v-339.375l182.875 179.375zM333.333 91.667h500l-183.333 183.333l-66.667 -58.333l-66.666 58.333zM875 130.583v341.292l-188.708 -165.125zM583.333 294.792l291.667 255.208h-583.333z" />
    <glyph glyph-name="unie027" unicode="&#xe027;" 
d="M499.237 731.169c40.8643 0 73.9727 -33.1396 73.9717 -74.0049v-740.028c0 -40.8652 -33.1084 -74.0039 -73.9727 -74.0039l-221.888 222.048h-157.263c-40.8652 0 -74.0049 33.1055 -74.0049 74.0059v295.993c0 40.8652 33.1396 74.0049 74.0049 74.0049h157.264z
M499.237 -80.2998v724.479l-194.17 -214.26h-184.981v-295.989h184.981zM937.804 254.692h-92.5342c-7.30664 0 -13.2158 14.543 -13.2158 32.46c0 17.9199 5.90918 32.46 13.2158 32.46h92.5342c7.30762 0 13.2168 -14.543 13.2168 -32.46s-5.90918 -32.46 -13.2168 -32.46
zM947.835 674.177l-80.1348 -46.2646c-6.33105 -3.6543 -18.7188 5.9834 -27.6777 21.5s-11.1133 31.0635 -4.78223 34.7188l80.1357 46.2656c6.33105 3.6543 18.7178 -5.98438 27.6768 -21.501s11.1143 -31.0635 4.78223 -34.7188zM947.835 -99.8721
c6.33203 -3.65527 4.17676 -19.2012 -4.78223 -34.7197c-8.95898 -15.5156 -21.3457 -25.1553 -27.6768 -21.5l-80.1357 46.2656c-6.33105 3.65527 -4.17676 19.2012 4.78223 34.7188c8.95898 15.5166 21.3467 25.1543 27.6777 21.5zM625.28 120.888
c-6.59766 17.7598 -4.77441 34.6045 12.9873 41.2041c44.8535 20.707 66.2627 61 71.7373 111.538c6.3877 58.9639 -21.8311 113.153 -70.5469 135.475c-15.9346 10.25 -22.5322 28.0049 -12.2842 43.9404c10.251 15.9336 28.0107 22.5322 43.9404 12.2842
c72.1611 -41.9053 115.4 -114.768 106.277 -199.001c-7.30176 -67.3848 -48.293 -131.122 -110.907 -158.428c-14.6318 -8.28223 -34.248 -2.8457 -41.2041 12.9824z" />
    <glyph glyph-name="unie028" unicode="&#xe028;" 
d="M511.61 637.404c189.7 0 344.02 -138.883 344.02 -309.623c0 -170.71 -154.324 -309.629 -344.026 -309.629c-46.6416 0 -92.1533 8.46387 -135.374 25.1943l-166.938 -75.1572c-2.24219 -1.00488 -4.65527 -1.50488 -7.05273 -1.50488
c-3.94629 0 -7.8623 1.33789 -10.999 3.96387c-5.05762 4.19531 -7.27051 10.9531 -5.70996 17.332l40.9375 166.936c-38.5537 51.3418 -58.8779 110.936 -58.8779 172.862c0 170.742 154.318 309.626 344.021 309.626zM511.61 52.5586
c170.72 0 309.628 123.463 309.628 275.228c0 151.753 -138.9 275.218 -309.62 275.218s-309.62 -123.462 -309.62 -275.218c0 -56.8281 19.5859 -111.546 56.6211 -158.25c3.30762 -4.12598 4.50391 -9.57324 3.24316 -14.7793l-34.5039 -140.698l141.404 63.6621
c4.30371 1.94629 9.24121 2.0127 13.5723 0.267578c41.1182 -16.8604 84.6084 -25.4287 129.274 -25.4287zM391.199 413.858c19 0 34.4004 -15.3975 34.4004 -34.4033s-15.4053 -34.4033 -34.4004 -34.4033c-19.0059 0 -34.4033 15.3975 -34.4033 34.4033
s15.3984 34.4033 34.4033 34.4033zM632.016 413.858c19.0029 0 34.4033 -15.3975 34.4033 -34.4033s-15.3975 -34.4033 -34.4033 -34.4033s-34.4033 15.3975 -34.4033 34.4033s15.3994 34.4033 34.4033 34.4033z" />
    <glyph glyph-name="unie029" unicode="&#xe029;" 
d="M983.267 -66.667l-0.000976562 -0.166016l0.0332031 -0.0332031h-0.0332031c-0.0996094 -45.8672 -37.4336 -83.1338 -83.333 -83.1338h-466.667h-0.0332031c-45.9004 0.0664062 -83.2334 37.4336 -83.2334 83.333h-0.0332031c0 142.101 94.5332 247.732 237.833 275.899
c-55.0332 25.667 -93.2666 81.5664 -93.2666 146.2c0 88.8994 72.333 161.233 161.2 161.233c88.9004 0 161.2 -72.334 161.2 -161.233c0 -62.4004 -35.6006 -116.634 -87.5674 -143.399c152.2 -23.2002 253.834 -131.233 253.9 -278.566v-0.133789h0.000976562z
M527.832 355.434c0 -70.5332 57.3672 -127.9 127.867 -127.9s127.866 57.3672 127.866 127.9s-57.3662 127.899 -127.866 127.899s-127.867 -57.3662 -127.867 -127.899zM899.933 -116.667c27.5996 0 50 22.4336 50.0332 50c0 147.2 -116.5 250 -283.333 250
c-166.834 0 -283.334 -102.8 -283.334 -250h0.0332031c0 -27.5664 22.4336 -50 50 -50h466.601zM333.332 83.333c9.2002 0 16.667 -7.46582 16.667 -16.665c0 -9.2002 -7.4668 -16.667 -16.667 -16.667h-233.333c-45.9336 0 -83.333 37.3662 -83.333 83.333
c0 142.134 94.5332 247.767 237.833 275.899c-55.0332 25.667 -93.2666 81.5664 -93.2666 146.2c0 88.8994 72.333 161.233 161.233 161.233c88.8662 0 161.2 -72.334 161.2 -161.233c0 -60.5332 -33.5 -113.367 -82.9336 -140.935
c30.7002 -3.4668 54.167 -12.5 77.7334 -36.0664c6.5 -6.5 6.5 -17.0674 0 -23.5674s-17.0664 -6.5 -23.5664 0c-28.4668 28.4668 -55.7002 28.4668 -121.567 28.4668c-166.833 0 -283.333 -102.8 -283.333 -250c0 -27.5664 22.4336 -50 50 -50h233.333v0.000976562z
M194.565 555.435c0 -70.5332 57.3672 -127.9 127.9 -127.9c70.5 0 127.866 57.3672 127.866 127.9s-57.3662 127.899 -127.866 127.899c-70.5332 0 -127.9 -57.3662 -127.9 -127.899z" />
    <glyph glyph-name="unie02A" unicode="&#xe02a;" 
d="M275.163 711.724c109.272 0 197.854 -88.583 197.854 -197.855s-88.582 -197.855 -197.855 -197.855c-109.271 0 -197.854 88.583 -197.854 197.855s88.582 197.855 197.854 197.855h0.001zM275.162 371.41c78.6768 0 142.456 63.7793 142.457 142.456
c0 78.6758 -63.7803 142.455 -142.457 142.455s-142.455 -63.7793 -142.455 -142.455c0 -78.6768 63.7793 -142.456 142.455 -142.456zM724.834 316.011c-109.272 0 -197.854 88.583 -197.854 197.855s88.583 197.855 197.854 197.855s197.855 -88.583 197.855 -197.855
s-88.583 -197.855 -197.855 -197.855zM724.834 656.32c-78.6758 0 -142.455 -63.7783 -142.455 -142.455s63.7783 -142.456 142.455 -142.456s142.457 63.7793 142.457 142.456c0 78.6758 -63.7812 142.455 -142.457 142.455zM275.162 260.551
c109.272 0 197.855 -88.584 197.855 -197.855c0 -109.272 -88.582 -197.855 -197.855 -197.855c-109.271 0 -197.854 88.582 -197.854 197.855c0 109.271 88.582 197.855 197.854 197.855zM275.162 -79.7607c78.6768 0 142.456 63.7783 142.457 142.456
c0 78.6768 -63.7803 142.456 -142.457 142.456s-142.455 -63.7803 -142.455 -142.456c0 -78.6777 63.7793 -142.456 142.455 -142.456zM526.979 62.6953c0 109.272 88.583 197.855 197.855 197.855s197.855 -88.583 197.855 -197.855s-88.583 -197.855 -197.855 -197.855
s-197.855 88.583 -197.855 197.855z" />
    <glyph glyph-name="unie02B" unicode="&#xe02b;" 
d="M974.643 -71.5957l-323.735 0.000976562c-13.7461 0 -24.9023 11.1572 -24.9023 24.9033v124.514h249.027c13.7461 0 24.9023 11.1562 24.9023 24.9023v24.9023c0 13.7471 -11.1562 24.9033 -24.9023 24.9033h-249.027v49.8057h249.027
c13.7461 0 24.9023 11.1562 24.9023 24.9023v24.9023c0 13.7471 -11.1562 24.9033 -24.9023 24.9033h-249.027v49.8057h249.027c13.7461 0 24.9023 11.1562 24.9023 24.9023v24.9023c0 13.7471 -11.1562 24.9033 -24.9023 24.9033h-249.027v49.8057h249.027
c13.7461 0 24.9023 11.1562 24.9023 24.9023v24.9023c0 13.7471 -11.1562 24.9033 -24.9023 24.9033h-249.027v124.514c0 13.7461 11.1562 24.9023 24.9023 24.9023h323.735c13.7461 0 24.9033 -11.1562 24.9033 -24.9023v-697.276
c0 -13.7461 -11.1572 -24.9033 -24.9033 -24.9033v-0.000976562v-0.0007zM576.598 225.321v-95.751c-0.0742188 -0.697266 -0.398438 -1.27051 -0.398438 -1.94336v-24.9023c0 -0.671875 0.324219 -1.24512 0.398438 -1.91699v-265.563l-576.598 84.5947v736.872
l576.598 98.3906v-252.016c-0.0742188 -0.672852 -0.398438 -1.24512 -0.398438 -1.91797v-24.9023c0 -0.672852 0.324219 -1.24512 0.398438 -1.91797v-95.751c-0.0742188 -0.697266 -0.398438 -1.26953 -0.398438 -1.94238v-24.9023
c0 -0.672852 0.324219 -1.24512 0.398438 -1.91797v-95.751c-0.0742188 -0.697266 -0.398438 -1.26953 -0.398438 -1.94238v-24.9023c0 -0.671875 0.324219 -1.24512 0.398438 -1.91708zM463.737 470.986l-42.9316 -184.355
c-8.44238 -35.3613 -15.1416 -74.1104 -20.1963 -116.171h-2.51562c-6.74805 35.3623 -14.3193 70.6992 -22.7363 106.061l-55.5576 194.44h-60.6133l-58.0732 -194.415c-6.74805 -23.6084 -14.3193 -58.9453 -22.7363 -106.061h-2.51465
c-6.74902 43.7539 -13.4971 82.4775 -20.1963 116.171l-42.9326 184.354h-58.0732l88.3799 -345.948h65.6436l78.2939 292.931h2.51562c13.4473 -60.6133 21.043 -93.4346 22.7363 -98.4902l53.0176 -194.44h68.1836l88.3799 345.948h-58.0732z" />
    <glyph glyph-name="unie02C" unicode="&#xe02c;" 
d="M415.856 565.657h460.971c17.458 0 31.6289 14.1709 31.6289 31.6289c0 17.4854 -14.1709 31.6279 -31.6289 31.6279h-460.971c-17.457 0 -31.6289 -14.1426 -31.6289 -31.6279c0 -17.458 14.1719 -31.6289 31.6289 -31.6289zM282.971 415.058
c17.4854 0 31.6562 -14.1436 31.6562 -31.5723v-189.8c0 -17.457 -14.1719 -31.6279 -31.6289 -31.6279h-189.771c-17.457 0 -31.5996 14.1709 -31.5996 31.6279v189.8c0 17.4287 14.1426 31.5723 31.5996 31.5723h189.743v0h0.0007zM251.341 225.313l0.0283203 126.514
h-126.485v-126.514h126.457v0h-0.0003203zM282.97 106.343c17.4854 0 31.6572 -14.1143 31.6572 -31.5996v-189.743c0 -17.457 -14.1719 -31.5996 -31.6289 -31.5996h-189.771c-17.457 0 -31.5996 14.1426 -31.5996 31.5996v189.743
c0 17.4854 14.1426 31.5996 31.5996 31.5996h189.743v0zM251.341 -83.4004l0.0283203 126.515h-126.485v-126.515h126.457v0h-0.0003203zM350.455 740.714c6.77148 -4.91406 11.0859 -12.0566 12.2002 -20.1992c1.05664 -8.05762 -1.17188 -15.9434 -6.31445 -22.3721
l-171.114 -212.143c-5.74316 -7.11426 -14.3428 -11.2861 -23.6855 -11.4854c-0.0859375 -0.0292969 -0.657227 -0.0292969 -0.743164 -0.0292969c-9 0 -17.543 3.77148 -23.457 10.3428l-73.2852 82.0576c-5.48633 6.2002 -8.11523 14 -7.45801 22.0859
c0.686523 8.1709 4.65723 15.5137 11.1719 20.7422c12.457 10 32.5996 8.37207 43.1709 -3.51367l48.6572 -54.4287l147.857 183.343c10 12.457 29.8291 15.0283 43.0001 5.59987zM377.369 639.286h542.857v-85.7148h-542.857v85.7148zM377.369 324.972h542.857v-85.7148
h-542.857v85.7148zM377.369 -17.9141h542.857v-85.7148h-542.857v85.7148z" />
    <glyph glyph-name="unie02D" unicode="&#xe02d;" 
d="M748.496 301.597h62.2979v-382.064c0 -31.459 -25.502 -56.9619 -56.9609 -56.9619h-635.612c-31.459 0 -56.9609 25.5029 -56.9609 56.9619v699.266c0 31.459 25.502 56.9609 56.9609 56.9609h443.101v-63.0322h-436.4v-686.494h623.575v375.364zM876.641 675.922
c24.5947 0 44.5322 -19.9375 44.5342 -44.5303c0 -10.3564 -3.5459 -19.8789 -9.47461 -27.4424l-7.61621 -7.61621l-432.74 -450.739l-62.623 -62.623l-62.6221 62.623l-118.505 118.505l-11.0967 11.0957c-5.05371 7.2373 -8.02734 16.0352 -8.02734 25.5322
c0 10.9844 3.97461 21.0371 10.5527 28.8154l5.28809 5.28809c7.77832 6.58008 17.8301 10.5527 28.8154 10.5527c11.584 0 22.1357 -4.41113 30.0713 -11.6436l2.94238 -2.94336l122.581 -122.581l433.911 451.911l5.27344 5.27344
c7.75684 6.56055 17.7812 10.5225 28.7354 10.5223z" />
    <glyph glyph-name="unie02E" unicode="&#xe02e;" 
d="M499.989 -74.9971h-83.334l-229.15 -125.003v229.15c-114.231 80.1895 -187.505 195.275 -187.505 333.361c0 241.609 223.858 437.488 499.989 437.488c276.131 0 499.99 -195.879 499.99 -437.488c0.0205078 -241.65 -223.838 -437.51 -499.99 -437.51v0.000976562z
M499.99 737.521c-241.608 0 -437.528 -167.899 -437.528 -375.009c0 -127.086 74.7305 -244.672 187.545 -312.484v-138.899l166.629 76.377h83.335c241.609 0 437.53 167.899 437.53 375.009c0.0205078 207.129 -195.9 375.008 -437.511 375.008v-0.000976562z
M750.019 300.012c-34.542 0 -62.5225 27.9795 -62.5225 62.5215c0 34.543 27.9805 62.5225 62.5225 62.5225c34.501 0 62.4805 -27.9795 62.4805 -62.5225c0 -34.542 -27.9795 -62.5215 -62.4805 -62.5215zM499.991 300.012c-34.542 0 -62.5215 27.9795 -62.5215 62.5215
c0 34.543 27.9795 62.5225 62.5215 62.5225c34.543 0 62.5225 -27.9795 62.5225 -62.5225c0 -34.542 -27.9795 -62.5215 -62.5225 -62.5215zM249.986 300.012c-34.501 0 -62.4805 27.9795 -62.4805 62.501s27.9795 62.5225 62.4805 62.5225
c34.542 0 62.5225 -27.9805 62.5225 -62.5225s-28.001 -62.501 -62.5225 -62.501z" />
    <glyph glyph-name="unie02F" unicode="&#xe02f;" 
d="M800.264 379.822c75.8252 -44.4668 121.094 -119.879 121.094 -201.728c0 -68.9502 -32.7275 -134.641 -89.791 -180.229c-2.65625 -2.12207 -5.95605 -3.27832 -9.35547 -3.27832h-645.059c-3.40137 0 -6.7002 1.15625 -9.35742 3.27832
c-57.0635 45.5898 -89.791 111.279 -89.791 180.229c0 41.8896 12.0664 83.127 34.8916 119.253c22.001 34.8193 53.5605 64.3408 91.2686 85.3711c14.0352 7.8291 24.4648 16.6943 37.2002 31.6221c11.5742 13.5664 18.3174 22.8896 25.3389 39.1738
c19.2324 44.6064 52.415 82.6475 95.9648 110.013c44.3125 27.8428 96.332 42.5615 150.438 42.5615c57.4814 0 112.142 -16.4395 158.07 -47.541c44.6992 -30.2666 78.332 -73.4404 94.707 -121.569c1.71875 -5.05078 3.10547 -10.1035 4.44824 -14.9902
c2.92578 -10.6543 5.68848 -20.7188 11.2988 -28.4785c3.79395 -5.24609 7.21973 -7.1875 14.0449 -11.0557c1.45703 -0.825195 2.98145 -1.69043 4.58789 -2.63184zM816.864 24.5684c47.4229 39.6885 74.5137 95.3613 74.5146 153.527
c0 71.0947 -39.7324 136.838 -106.282 175.867c-1.47168 0.863281 -2.86914 1.6543 -4.2041 2.41113c-8.19434 4.64355 -15.9346 9.03027 -23.5547 19.5703c-8.79004 12.1562 -12.5762 25.9434 -15.916 38.1074c-1.28027 4.66602 -2.49023 9.07129 -3.91992 13.2715
c-30.2773 88.9932 -120.454 148.785 -224.396 148.785c-96.2393 0 -184.197 -54.0361 -218.873 -134.463c-8.44531 -19.5869 -17.0811 -31.5459 -30.0625 -46.7617c-15.0537 -17.6465 -28.209 -28.7559 -45.4043 -38.3457
c-69.3682 -38.6904 -110.782 -105.396 -110.782 -178.442c0 -58.1641 27.0908 -113.838 74.5146 -153.527h634.365zM682.748 352.413l56.415 -56.4141c5.85352 -5.85449 5.85352 -15.3447 0 -21.1992c-5.85449 -5.85254 -15.3457 -5.85254 -21.1992 0l-31.9619 31.9629
c-1.30078 -95.5459 -79.415 -172.875 -175.265 -172.875c-36.1973 0 -70.9453 10.9424 -100.49 31.6465c-28.8662 20.2275 -50.7539 48.2559 -63.2949 81.0537c-2.95703 7.7334 0.914062 16.3984 8.64648 19.3555c7.73438 2.95703 16.3984 -0.916016 19.3555 -8.64746
c21.3682 -55.8828 75.9355 -93.4287 135.782 -93.4287c78.5381 0 142.715 62.6299 145.229 140.566l-36.8359 -36.8359c-2.92578 -2.92676 -6.7627 -4.39062 -10.5986 -4.39062c-3.83496 0 -7.67188 1.46289 -10.5986 4.39062c-5.85449 5.85449 -5.85449 15.3457 0 21.1992
l63.6172 63.6162c5.85352 5.85449 15.3457 5.85449 21.1982 0z" />
    <glyph glyph-name="unie030" unicode="&#xe030;" 
d="M373.57 676.424c42.6123 0 77.29 -34.6797 77.291 -77.292v-171.81c0 -42.6377 -34.6777 -77.291 -77.291 -77.291h-171.81c-42.6123 0 -77.292 34.6533 -77.292 77.291v171.81c0 42.6133 34.6797 77.292 77.292 77.292h171.81zM399.334 427.322h0.000976562v171.81
c0 14.208 -11.5586 25.7646 -25.7646 25.7646h-171.81c-14.2061 0 -25.7637 -11.5576 -25.7637 -25.7646v-171.81c0 -14.2227 11.5576 -25.7627 25.7637 -25.7627h171.809c14.207 0 25.7646 11.54 25.7646 25.7627zM796.324 676.424
c42.6133 0 77.292 -34.6797 77.292 -77.292v-171.81c0 -42.6377 -34.6787 -77.291 -77.292 -77.291h-171.81c-42.6133 0 -77.291 34.6533 -77.291 77.291v171.81c0 42.6133 34.6777 77.292 77.291 77.292h171.81zM822.088 427.322v171.81
c0 14.208 -11.5557 25.7646 -25.7637 25.7646h-171.81c-14.207 0 -25.7637 -11.5576 -25.7637 -25.7646v-171.81c0 -14.2227 11.5566 -25.7627 25.7637 -25.7627h171.81c14.208 0 25.7637 11.54 25.7637 25.7627zM796.324 253.619c42.6133 0 77.292 -34.6787 77.292 -77.293
v-171.809c0 -42.6133 -34.6787 -77.292 -77.292 -77.292h-171.81c-42.6133 0 -77.291 34.6787 -77.291 77.292v171.809c0 42.6143 34.6777 77.293 77.291 77.293h171.81zM822.088 4.51758v171.809c0 14.208 -11.5557 25.7646 -25.7637 25.7646h-171.81
c-14.207 0 -25.7637 -11.5566 -25.7637 -25.7646v-171.809c0 -14.208 11.5566 -25.7646 25.7637 -25.7646h171.81c14.208 0 25.7637 11.5566 25.7637 25.7646zM373.57 253.619c42.6123 0 77.29 -34.6787 77.291 -77.293v-171.809
c0 -42.6133 -34.6777 -77.292 -77.291 -77.292h-171.81c-42.6123 0 -77.292 34.6787 -77.292 77.292v171.809c0 42.6143 34.6797 77.293 77.292 77.293h171.81zM399.334 4.51758h0.000976562v171.809c0 14.208 -11.5586 25.7646 -25.7646 25.7646h-171.81
c-14.2061 0 -25.7637 -11.5566 -25.7637 -25.7646v-171.809c0 -14.208 11.5576 -25.7646 25.7637 -25.7646h171.809c14.207 0 25.7646 11.5566 25.7646 25.7646z" />
    <glyph glyph-name="unie031" unicode="&#xe031;" horiz-adv-x="1001" 
d="M281 543c-18 -0.666992 -35.668 -1.00098 -53.001 -1.00098h-83c-12 0 -24.167 -2 -36.5 -6s-23.166 -10.167 -32.499 -18.5s-17 -19 -23 -32s-9 -28.167 -9 -45.5v-76h912v41c0 10.667 -0.166992 20.667 -0.5 30s-0.5 15.333 -0.5 18
c0 8.66699 -1.66699 18.334 -5 29.001s-9 20.5 -17 29.5s-18.5 16.5 -31.5 22.5s-29.5 9 -49.5 9h-133v-97h-438v97zM954.999 309.999l-0.000976562 -52.002c0 -15.333 0.166992 -32.666 0.5 -51.999s0.5 -38.666 0.5 -57.999s-3.5 -35.166 -10.5 -47.499
s-15.667 -22.333 -26 -30s-21.333 -13 -33 -16s-22.167 -4.5 -31.5 -4.5c-9.33301 -0.666992 -19.166 -0.833984 -29.499 -0.500977s-20.166 0.5 -29.499 0.5h-32l-45 128h-439l-44 -128h-29h-34c-13.333 0 -28.333 0.333008 -45 1c-16.667 0 -30.334 3.16699 -41.001 9.5
s-19.167 14 -25.5 23s-10.833 18.833 -13.5 29.5s-4 20.667 -4 30v167zM162.998 246.997c-8 0 -15 -2.83301 -21 -8.5s-9 -12.834 -9 -21.501s3 -15.834 9 -21.501s13 -8.5 21 -8.5c8.66699 0 16 2.83301 22 8.5s9 12.834 9 21.501s-3 15.834 -9 21.501s-13.333 8.5 -22 8.5
zM315.998 122.997c-5.33301 -17.333 -9.99805 -33.335 -13.998 -48.002c-3.33301 -12.667 -6.83301 -25 -10.5 -37s-6.16699 -20.333 -7.5 -25s-2.33301 -9.66699 -3 -15s-0.333984 -10.166 0.999023 -14.499s4.5 -7.83301 9.5 -10.5s12.167 -4 21.5 -4h37h67h81h80h64h36
c15.333 0 26.666 4 33.999 12s8 20.667 2 38c-3.33301 8.66699 -6.5 18.834 -9.5 30.501s-6.16699 23.167 -9.5 34.5c-3.33301 12.667 -7 25.667 -11 39h-368zM336 497.995l-0.000976562 228c0 7.33301 0.833008 15 2.5 23s5 15.167 10 21.5s11.833 11.5 20.5 15.5
s20 6 34 6h188c20.667 0 37.834 -4.83301 51.501 -14.5s20.5 -27.167 20.5 -52.5v-227h-327z" />
    <glyph glyph-name="unie032" unicode="&#xe032;" 
d="M408.594 126.074c33.6914 58.3984 378.565 503.126 397.022 492.432c18.5049 -10.6934 -194.238 -531.738 -227.931 -590.088c-33.6914 -58.3975 -86.6699 -62.6943 -133.398 -35.7412c-46.7275 26.9521 -69.3848 75 -35.6934 133.397v0zM500.001 497.168
c-218.994 0 -390.625 -187.988 -390.625 -427.931c0 -15.2334 0.683594 -30.4678 2.00195 -45.2627c2.39258 -26.8555 -17.4316 -50.5371 -44.2871 -52.9785c-26.6113 -2.34473 -50.5859 17.4307 -52.9785 44.2861c-1.5625 17.6758 -2.39258 35.792 -2.39258 53.9551
c0 294.727 214.502 525.586 488.281 525.586c45.7031 0 89.5996 -6.54297 131.201 -18.6025c-23.291 -28.0762 -47.2656 -57.5684 -68.6523 -84.3262c-20.3125 3.41797 -41.1621 5.27344 -62.5485 5.2737zM852.491 436.183
c84.4238 -94.043 135.791 -222.853 135.791 -366.943c0 -18.4561 -0.830078 -36.9619 -2.49023 -55.0283c-2.29492 -25.2939 -23.584 -44.3857 -48.5352 -44.3857c-1.51367 0 -2.97852 0.0488281 -4.49219 0.196289c-26.8555 2.48926 -46.6309 26.2197 -44.1895 53.0752
c1.36719 15.0879 2.05078 30.665 2.05078 46.1426c0 98.9746 -29.1992 188.965 -78.8574 260.742c12.6953 32.2754 27.0996 69.5801 40.7227 106.201z" />
    <glyph glyph-name="unie033" unicode="&#xe033;" horiz-adv-x="1024" 
d="M244 127h45c2 0 3.66699 0.666992 5 2s2 3 2 5v45c0 4.66699 -2.33301 7 -7 7h-45c-2 0 -3.66699 -0.666992 -5 -2s-2 -3 -2 -5v-45c0 -1.33301 0.333008 -2.5 1 -3.5s1.5 -1.83301 2.5 -2.5s2.16699 -1 3.5 -1zM326 127h46.001c1.33301 0 2.66602 0.666992 3.99902 2
s2 3 2 5v45c0 2 -0.666992 3.66699 -2 5s-2.66602 2 -3.99902 2h-46c-1.33301 0 -2.33301 -0.333008 -3 -1s-1.33398 -1.5 -2.00098 -2.5s-1 -2.16699 -1 -3.5v-45c0 -4.66699 2 -7 5.99998 -7zM409.001 127l45.001 -0.000976562c3.33301 1.33301 5.33301 3.66602 6 6.99902
v45c0 2 -0.5 3.66699 -1.5 5s-2.5 2 -4.5 2h-45c-4 -1.33301 -6.33301 -3.66602 -7 -6.99902v-45c1.33301 -3.33301 3.66602 -5.66602 6.999 -6.99902zM491.002 126.999l45 0.000976562c4 1.33301 6.33301 3.66602 7 6.99902v45c0 4.66699 -2.33301 7 -7 7h-45
c-1.33301 0 -2.5 -0.333008 -3.5 -1s-1.83301 -1.5 -2.5 -2.5s-1 -2.16699 -1 -3.5v-45c0 -4.66699 2.33301 -7 7 -7zM573.002 127l46.001 -0.000976562c1.33301 0 2.66602 0.666992 3.99902 2s2 3 2 5v45c0 4.66699 -2 7 -6 7h-46
c-3.33301 -1.33301 -5.33301 -3.66602 -6 -6.99902v-45c0 -4.66699 2 -7 5.99998 -7zM656.003 126.999l45 -0.000976562c2 0 3.5 0.666992 4.5 2s1.5 3 1.5 5v45c0 4.66699 -2 7 -6 7h-45c-4 -1.33301 -6.33301 -3.66602 -7 -6.99902v-45c0 -4.66699 2.33301 -7 7 -7z
M738.003 126.998l44.999 0.000976562c2 0 3.66699 0.666992 5 2c1.33301 1.33301 2 3 2 5v45c-1.33301 3.33301 -3.66602 5.66602 -6.99902 6.99902h-45c-2 0 -3.5 -0.666992 -4.5 -2s-1.5 -3 -1.5 -5v-45c0 -2 0.5 -3.66699 1.5 -5s2.5 -2 4.50002 -2zM244.002 11.999
h44.999c2 0 3.66699 0.666992 5 2s2 2.66602 2 3.99902v46c0 4 -2.33301 6 -7 6h-45c-3.33301 -0.666992 -5.66602 -2.66699 -6.99902 -6v-46c0 -1.33301 0.666992 -2.66602 2 -3.99902s3 -2 5.00002 -2zM326.001 11.999l45.999 0.000976562c4 0 6 2 6 6v46
c0 1.33301 -0.666992 2.66602 -2 3.99902s-2.66602 2 -3.99902 2h-46c-3.33301 -0.666992 -5.33301 -2.66699 -6 -6v-46c0 -4 2 -6 6.00002 -6zM409 12l45.001 0.000976562c4 0 6 2 6 6v46c0 1.33301 -0.5 2.66602 -1.5 3.99902s-2.5 2 -4.5 2h-45
c-4 -0.666992 -6.33301 -2.66699 -7 -6v-46c1.33301 -3.33301 3.66602 -5.33301 6.999 -6zM491.001 12.001l44.999 0.000976562c2 0 3.66699 0.666992 5 2s2 2.66602 2 3.99902v46c0 4 -2.33301 6 -7 6h-45c-3.33301 -0.666992 -5.66602 -2.66699 -6.99902 -6v-46
c0 -4 2.33301 -6 7.00002 -6zM573 12.002l45.999 -0.000976562c4 0 6 2 6 6v46c0 4 -2 6 -6 6h-46c-1.33301 0 -2.66602 -0.666992 -3.99902 -2s-2 -2.66602 -2 -3.99902v-46c0 -4 2 -6 6.00002 -6zM408.999 243.001l45.001 0.000976562c4 0 6 2 6 6v46
c0 1.33301 -0.5 2.66602 -1.5 3.99902s-2.5 2 -4.5 2h-45c-4.66699 0 -7 -2 -7 -6v-46c1.33301 -3.33301 3.66602 -5.33301 6.999 -6zM491 243.002l45 0.000976562c2 0 3.66699 0.5 5 1.5s2 2.5 2 4.5v46c0 1.33301 -0.666992 2.66602 -2 3.99902s-3 2 -5 2h-45
c-4.66699 0 -7 -2 -7 -6v-46c0 -4 2.33301 -6 7 -6zM573 243.003l45.999 0.000976562c4 0 6 2 6 6v46c0 1.33301 -0.666992 2.66602 -2 3.99902s-2.66602 2 -3.99902 2h-46c-4 0 -6 -2 -6 -6v-46c0 -4 2 -6 6.00002 -6zM655.999 243.004h45c4 0 6 2 6 6v46
c-0.666992 3.33301 -2.66699 5.33301 -6 6h-45c-4.66699 0 -7 -2 -7 -6v-46c0 -4 2.33301 -6 7 -6zM737.999 243.004l45 0.000976562c4.66699 0 7 2 7 6v46c0 1.33301 -0.666992 2.66602 -2 3.99902s-3 2 -5 2h-45c-4 0 -6 -2 -6 -6v-46c0 -2 0.5 -3.5 1.5 -4.5
s2.5 -1.5 4.5 -1.5zM878.999 561.005l-186 -0.000976562l-136 140c-2.66699 -5.33301 -6 -9.83301 -10 -13.5s-8.33301 -6.83398 -13 -9.50098l114 -117h-269l114 117c-10 4.66699 -17.667 12.334 -23 23.001l-136 -140h-186c-2 0 -4.33301 -0.166992 -7 -0.5
s-5 -1.16602 -7 -2.49902l-6 -4c-2 -1.33301 -3.66699 -3 -5 -5s-2.5 -4 -3.5 -6s-1.83301 -4.16699 -2.5 -6.5s-1 -4.83301 -1 -7.5v-640c0 -5.33301 1.5 -10.5 4.5 -15.5s7 -9 12 -12s10.167 -4.5 15.5 -4.5h731c8.66699 0 16.167 3.16699 22.5 9.5s9.5 13.833 9.5 22.5
v640c0 8.66699 -3.16699 16.167 -9.5 22.5s-13.833 9.5 -22.5 9.49998zM846.999 -78.9961h-667v473h667v-473zM846.999 432.004h-667v65h667v-65zM507.999 706.004h6h5c4 0.666992 7.5 2.16699 10.5 4.5s5.66699 5 8 8s3.83301 6.5 4.5 10.5c0.666992 2 1 4 1 6
c0 8 -2.83301 14.833 -8.5 20.5s-12.5 8.5 -20.5 8.5s-15 -2.83301 -21 -8.5s-9 -12.5 -9 -20.5c0 -2 0.333008 -4 1 -6c1.33301 -6 4 -11 8 -15s9 -6.66699 15 -8z" />
    <glyph glyph-name="unie034" unicode="&#xe034;" horiz-adv-x="1024" 
d="M681 430h-350.999v213h71c6 24 18.667 43.833 38 59.5s41.5 23.5 66.5 23.5s47.167 -7.83301 66.5 -23.5s31.666 -35.5 36.999 -59.5h72v-213zM379.001 479h252v115h-68v25c0 16 -5.66699 29.5 -17 40.5s-25 16.5 -41 16.5s-29.5 -5.5 -40.5 -16.5
s-16.5 -24.5 -16.5 -40.5v-25h-69v-115zM745.001 -118l-171.001 -0.000976562v49h171c23.333 0 43.333 8.33301 60 25s25 36.667 25 60v466c0 23.333 -8.33301 43.333 -25 60s-36.667 25 -60 25h-64v-137h-351v137h-51c-23.333 0 -43.333 -8.33301 -60 -25
s-25 -36.667 -25 -60v-329h-49v329c0 24 6 46.333 18 67s28.333 37 49 49s43 18 67 18h100v-137h252v137h114c36.667 0 68.167 -13.167 94.5 -39.5s39.5 -57.833 39.5 -94.5v-466c0 -10.667 -1.16699 -21 -3.5 -31s-5.66602 -19.333 -9.99902 -28s-9.66602 -17 -15.999 -25
s-13.333 -15 -21 -21s-15.834 -11.167 -24.501 -15.5s-18 -7.66602 -28 -9.99902s-20.333 -3.5 -31 -3.5zM363 71.999c-40 0 -74.333 15.833 -103 47.5s-43 69.834 -43 114.501c0 29.333 6.5 56.5 19.5 81.5s30.667 44.833 53 59.5s46.833 22 73.5 22
s51.167 -7.33301 73.5 -22s40 -34.5 53 -59.5s19.5 -52.167 19.5 -81.5c0 -44.667 -14.333 -82.834 -43 -114.501s-63 -47.5 -103 -47.5zM363 347.999c-13.333 0 -26 -3 -38 -9s-22.333 -14.167 -31 -24.5s-15.5 -22.5 -20.5 -36.5s-7.5 -28.667 -7.5 -44
c0 -30.667 9.5 -57.167 28.5 -79.5s41.833 -33.5 68.5 -33.5s49.5 11.167 68.5 33.5s28.5 49 28.5 80s-9.5 57.667 -28.5 80s-41.833 33.5 -68.5 33.5zM428 -109.001l-129.997 0.000976562c-21.333 0 -39.833 3.66699 -55.5 11s-27.667 16.666 -36 27.999
s-14.333 22.5 -18 33.5s-5.83398 21.5 -6.50098 31.5v47c0 14.667 2.83301 28.667 8.5 42s12 24.166 19 32.499s15.167 16.333 24.5 24s16 12.667 20 15c4 2.333 7.33301 4.16602 10 5.49902l22 -44c-1.33301 -0.666992 -3.33301 -1.83398 -6 -3.50098
s-7 -4.83398 -13 -9.50098s-11.5 -9.83398 -16.5 -15.501s-9.33301 -12.667 -13 -21s-5.5 -16.833 -5.5 -25.5v-46c0 -4 0.666992 -8.33301 2 -13c1.33301 -4.66699 4 -10.667 8 -18s10.833 -13.333 20.5 -18c9.667 -4.667 21.5 -7 35.5 -7h130c12 0 22.333 1.83301 31 5.5
s15.167 7.83398 19.5 12.501s7.83301 10.167 10.5 16.5s4.16699 11 4.5 14s0.5 5.83301 0.5 8.5v45c0 6.66699 -1 13 -3 19c-2 6 -4.5 11.333 -7.5 16s-6.5 9.33398 -10.5 14.001s-7.83301 8.5 -11.5 11.5s-7.33398 5.66699 -11.001 8s-6.16699 4 -7.5 5
s-2.33301 1.5 -3 1.5l22 44c2.66699 -1.33301 6 -3.16602 10 -5.49902s10.667 -7.33301 20 -15s17.5 -15.667 24.5 -24s13.333 -19.166 19 -32.499s8.5 -27.333 8.5 -42v-46c-0.666992 -10.667 -2.83398 -21.5 -6.50098 -32.5s-9.66699 -22.167 -18 -33.5
s-20.333 -20.666 -36 -27.999s-34.167 -11 -55.5 -11zM673.003 163l-83 82l35 35l83 -82zM708.003 163l-35 35l82 82l35 -35zM581.003 205h219v-49h-219v49zM581.003 123h219v-49h-219v49zM665.003 180h50v-219h-50v219z" />
    <glyph glyph-name="unie035" unicode="&#xe035;" horiz-adv-x="1025" 
d="M1006 109l-154.002 -177.002h-313c-11.333 0 -42.666 7 -93.999 21c-78.667 20.667 -145.333 21 -200 1c-26.667 -10 -52 -24 -76 -42c-8 8 -64.333 67 -169 177c190.667 115.333 291 176 301 182c27.333 14 54.5 20.167 81.5 18.5s49.333 -6.16699 67 -13.5
s34.667 -15.333 51 -24s27.5 -13 33.5 -13h243c8 0 15.667 -2.66699 23 -8s13.166 -12.166 17.499 -20.499s6.5 -17 6.5 -26s-3.83301 -18 -11.5 -27s-19.5 -15.833 -35.5 -20.5h-202v-3c0 -0.666992 0.333008 -2.33398 1 -5.00098l4 -8
c0.666992 -2.66699 2.16699 -5.66699 4.5 -9s4.83301 -6 7.5 -8s6.33398 -3.83301 11.001 -5.5s9.66699 -2.5 15 -2.5h196c2.66699 2 5.83398 4.83301 9.50098 8.5s10.334 10.5 20.001 20.5s18.5 19 26.5 27l24 24l15 15c6 8 12.167 13.5 18.5 16.5s11.666 4 15.999 3
s8.5 -2.66699 12.5 -5s6.83301 -4.66602 8.5 -6.99902s2.5 -3.83301 2.5 -4.5c2.66699 0.666992 6.16699 0.833984 10.5 0.500977s11 -1.83301 20 -4.5s15.833 -6.5 20.5 -11.5s6.5 -13.5 5.5 -25.5s-6.83301 -26.667 -17.5 -44zM879.998 627.998h-166v-184h-227v184h-165
v-294c-10 0 -20.167 -0.833008 -30.5 -2.5s-20.833 -4.16699 -31.5 -7.5v304v20v41h682v-41v-20v-369h-62v369z" />
    <glyph glyph-name="unie036" unicode="&#xe036;" 
d="M499.709 765.334c257.55 0 466.335 -208.161 466.337 -464.947c0 -256.781 -208.784 -464.948 -466.333 -464.948c-213.327 0 -392.287 143.204 -447.76 338.171c-0.37207 0.823242 -0.585938 1.66895 -0.907227 2.51562
c-0.292969 1.0498 -0.819336 1.99414 -1.10645 3.0498l0.455078 0.143555c-1.1582 3.91602 -2.45117 7.80762 -2.45117 12.1035c0 24.0693 19.5742 43.584 43.7188 43.584c19.1777 0 35.001 -12.498 40.8916 -29.6221l0.758789 0.236328
c42.2354 -162.681 190.024 -283.005 366.397 -283.005c209.254 0 378.895 169.139 378.895 377.771c0 208.636 -169.641 377.771 -378.895 377.771c-127.791 0 -240.629 -63.1719 -309.219 -159.825h76.0469c24.1445 0 43.7188 -19.5137 43.7188 -43.5889
c0 -24.0703 -19.5742 -43.5889 -43.7188 -43.5889h-189.448c-24.1445 0 -43.7188 19.5195 -43.7188 43.5889v174.355c0 24.0742 19.5742 43.5889 43.7188 43.5889s43.7188 -19.5137 43.7188 -43.5889v-78.3066c84.5371 117.716 222.6 194.544 378.899 194.544z
M499.709 569.189c24.1445 0 43.7188 -19.5137 43.7188 -43.5889v-217.949h145.729c24.1445 0 43.7188 -19.5098 43.7188 -43.5889c0 -24.0693 -19.5742 -43.584 -43.7188 -43.584h-189.443h-0.00390625c-24.1445 0 -43.7188 19.5137 -43.7188 43.5889v261.533
c0 24.0742 19.5742 43.5889 43.7188 43.5889h-0.00089375z" />
    <glyph glyph-name="unie037" unicode="&#xe037;" horiz-adv-x="1024" 
d="M369 220c20.667 0 40.8301 2.66406 60.4971 7.99707s37.834 12.833 54.501 22.5c16.667 9.667 32 21.5 46 35.5s25.833 29.333 35.5 46s17.167 34.834 22.5 54.501s8 39.834 8 60.501c0 62.667 -22.167 116.167 -66.5 160.5s-97.833 66.5 -160.5 66.5
c-15.333 0 -30.5 -1.66699 -45.5 -5s-29.167 -7.83301 -42.5 -13.5s-26.166 -12.667 -38.499 -21s-23.666 -17.5 -33.999 -27.5s-19.5 -21.167 -27.5 -33.5s-15 -25.166 -21 -38.499s-10.5 -27.5 -13.5 -42.5s-4.5 -30.167 -4.5 -45.5
c0 -62.667 22.167 -116.167 66.5 -160.5s97.833 -66.5 160.5 -66.5001zM369.496 641.997c53.667 0 99.5 -19.167 137.5 -57.5s57 -84.333 57 -138s-19 -99.5 -57 -137.5s-83.833 -57 -137.5 -57s-99.667 19 -138 57s-57.5 83.833 -57.5 137.5s19.167 99.667 57.5 138
c38.333 38.333 84.333 57.5 138 57.5zM758.996 66.9971c-18 0 -35.6641 -1.83203 -52.9971 -5.49902s-34.333 -8.83398 -51 -15.501l-6 -4c-22.667 26.667 -48.5 49.667 -77.5 69s-60.833 34.333 -95.5 45s-70.334 16 -107.001 16c-66.667 0 -128.167 -16.5 -184.5 -49.5
s-100.833 -77.667 -133.5 -134s-49 -117.833 -49 -184.5c0 -4.66699 1.5 -8.5 4.5 -11.5s6.66699 -4.5 11 -4.5c4.33301 0 8.16602 1.5 11.499 4.5c3.33298 3 5 6.83301 5 11.5c0 60.667 15 116.833 45 168.5c30 51.667 70.667 92.5 122 122.5s107.333 45 168 45
s116.833 -15 168.5 -45s92.5 -70.833 122.5 -122.5s45 -107.833 45 -168.5c0 -4.66699 1.5 -8.5 4.5 -11.5s6.83301 -4.5 11.5 -4.5c2.66699 0 5.33398 0.666992 8.00098 2s4.66699 3.33301 6 6s2 5.33398 2 8.00098c0 26 -2.83301 51.667 -8.5 77
s-13.5 49.166 -23.5 71.499s-22.333 43.833 -37 64.5c29.333 12 59.666 18 90.999 18c64 0 118.5 -22.5 163.5 -67.5s67.5 -99.5 67.5 -163.5c0 -4.66699 1.66699 -8.5 5 -11.5s7.16602 -4.5 11.499 -4.5s8 1.5 11 4.5s4.5 6.83301 4.5 11.5c0 76 -27.667 140 -83 192
c-51.333 47.333 -111.333 71 -180 71zM758.999 135.998c45.333 0 84.166 16 116.499 48s48.5 70.667 48.5 116c0 14.667 -2 29.167 -6 43.5s-9.5 27.5 -16.5 39.5s-15.667 23 -26 33s-21.5 18.667 -33.5 26s-25 12.833 -39 16.5s-28.667 5.5 -44 5.5
c-29.333 0 -56.666 -7.33301 -81.999 -22s-45.333 -34.5 -60 -59.5s-22 -52.5 -22 -82.5c0 -45.333 16 -84 48 -116s70.667 -48 116 -48zM758.999 431.998c36.667 0 68 -12.834 94 -38.501s39 -56.834 39 -93.501c0 -24 -6 -46.167 -18 -66.5s-28.167 -36.333 -48.5 -48
s-42.5 -17.5 -66.5 -17.5c-36.667 0 -67.834 12.833 -93.501 38.5s-38.5 56.834 -38.5 93.501s12.833 67.834 38.5 93.501s56.834 38.5 93.501 38.5z" />
    <glyph glyph-name="unie038" unicode="&#xe038;" 
d="M500 442.857c78.8926 0 142.857 -63.9648 142.857 -142.857s-63.9648 -142.857 -142.857 -142.857s-142.857 63.9648 -142.857 142.857s63.9648 142.857 142.857 142.857zM500 228.571c39.377 0 71.4287 32.0518 71.4287 71.4287s-32.0518 71.4287 -71.4287 71.4287
s-71.4287 -32.0518 -71.4287 -71.4287s32.0518 -71.4287 71.4287 -71.4287zM1000 335.714l-0.000976562 -71.4277h-73.2432c-17.1943 -208.113 -182.93 -373.85 -391.043 -391.044v-73.2432h-71.4277v73.2432c-208.077 17.1943 -373.814 182.93 -391.043 391.043h-73.2432
v71.4277h73.2432c17.2285 208.113 182.966 373.85 391.043 391.044v73.2432h71.4277v-73.2432c208.113 -17.1943 373.85 -182.93 391.044 -391.043zM535.713 -55.3281c168.458 16.8105 302.804 151.156 319.613 319.614h-69.6143v71.4277h69.6143
c-16.8105 168.458 -151.156 302.804 -319.614 319.613v-69.6143h-71.4277v69.6143c-168.458 -16.8105 -302.804 -151.156 -319.613 -319.614h69.6143v-71.4277h-69.6143c16.8105 -168.458 151.156 -302.804 319.614 -319.613v69.6143h71.4277v-69.6143z" />
    <glyph glyph-name="unie039" unicode="&#xe039;" 
d="M924.603 698.971c-16.5879 -74.748 -33.6768 -152.893 -51.165 -230.938c-35.4746 -157.689 -71.1504 -315.279 -106.625 -472.97c-0.700195 -3.09766 -1 -6.19531 -1.69922 -9.29395c-18.1875 -85.4395 -28.8799 -89.8369 -101.729 -41.1709
c-46.9668 31.4785 -94.6338 62.0566 -140.701 94.834c-28.9805 20.585 -44.1699 13.3906 -55.7617 -18.0879c-15.0889 -41.2705 -32.0771 -81.8428 -49.2656 -122.314c-6.59473 -15.4883 -12.5908 -35.874 -34.1758 -33.5762
c-23.1836 2.39844 -29.4795 24.083 -29.5791 42.5703c-0.299805 63.2559 -17.1885 124.413 -20.5859 187.069c-1.69824 31.3779 -10.0928 51.3633 -40.7715 65.9531c-62.2559 29.6797 -122.414 63.8555 -182.972 96.9326
c-16.1885 8.89355 -36.1748 17.1875 -37.2734 39.0723c-1.09961 23.7832 21.1846 28.9805 37.2734 37.2744c252.124 131.308 504.247 262.416 756.271 393.425c37.6738 19.5859 58.8594 10.292 58.7588 -28.7803zM842.358 565.363
c-8.89355 -1.79883 -13.291 -1.29883 -14.5898 -3.09766c-100.529 -141.9 -200.761 -284.001 -301.189 -426.102c-12.5908 -17.8877 -8.89355 -30.9785 8.99414 -43.1699c38.873 -26.4814 77.0459 -53.9629 115.319 -81.2432
c50.2646 -35.875 62.8555 -30.3789 76.0469 29.9785c22.7842 104.127 47.2666 207.854 70.3506 311.882c15.4893 69.6514 29.7793 139.603 45.0682 211.752zM745.326 597.041c-21.8848 4.09766 -30.5791 -3.79688 -40.0732 -8.69336
c-152.093 -78.8457 -304.286 -157.391 -455.881 -237.135c-30.0781 -15.7891 -82.8418 -22.7842 -83.3408 -52.1631c-0.599609 -34.0762 52.0635 -41.0713 82.4414 -58.0596c90.0371 -50.4648 90.3369 -49.8652 162.986 22.7842
c109.823 109.623 219.646 219.246 333.868 333.267zM675.874 443.948c-18.4873 -2.59863 -26.2812 -16.9873 -36.2744 -26.8799c-68.9521 -68.4521 -137.604 -137.404 -206.257 -206.156c-57.7598 -57.7598 -68.5518 -128.41 -28.5801 -212.251
c54.7617 172.18 185.771 292.194 271.112 445.287z" />
    </font>
</defs>
</svg>
