<?xml version="1.0" standalone="no"?>
<!DOCTYPE svg PUBLIC "-//W3C//DTD SVG 1.1//EN" "http://www.w3.org/Graphics/SVG/1.1/DTD/svg11.dtd" >
<svg xmlns="http://www.w3.org/2000/svg">
<metadata>
Created by FontForge 20120731 at Tue Feb  7 16:41:10 2017
 By admin
</metadata>
<defs>
<font id="iconfont" horiz-adv-x="1024" >
  <font-face 
    font-family="iconfont"
    font-weight="500"
    font-stretch="normal"
    units-per-em="1024"
    panose-1="2 0 6 3 0 0 0 0 0 0"
    ascent="896"
    descent="-128"
    x-height="792"
    bbox="-11 -139 1146 897"
    underline-thickness="0"
    underline-position="0"
    unicode-range="U+0078-EB24"
  />
<missing-glyph 
 />
    <glyph glyph-name=".notdef" 
 />
    <glyph glyph-name=".notdef" 
 />
    <glyph glyph-name=".null" horiz-adv-x="0" 
 />
    <glyph glyph-name="nonmarkingreturn" horiz-adv-x="341" 
 />
    <glyph glyph-name="x" unicode="x" horiz-adv-x="1001" 
d="M281 543q-27 -1 -53 -1h-83q-18 0 -36.5 -6t-32.5 -18.5t-23 -32t-9 -45.5v-76h912v41q0 16 -0.5 30t-0.5 18q0 13 -5 29t-17 29.5t-31.5 22.5t-49.5 9h-133v-97h-438v97zM955 310v-52q0 -23 0.5 -52t0.5 -58t-10.5 -47.5t-26 -30t-33 -16t-31.5 -4.5q-14 -1 -29.5 -0.5
t-29.5 0.5h-32l-45 128h-439l-44 -128h-29h-34q-20 0 -45 1q-25 0 -41 9.5t-25.5 23t-13.5 29.5t-4 30v167h911zM163 247q-12 0 -21 -8.5t-9 -21.5t9 -21.5t21 -8.5q13 0 22 8.5t9 21.5t-9 21.5t-22 8.5zM316 123q-8 -26 -14 -48q-5 -19 -10.5 -37t-7.5 -25t-3 -15t1 -14.5
t9.5 -10.5t21.5 -4h37h67h81h80h64h36q23 0 34 12t2 38q-5 13 -9.5 30.5t-9.5 34.5q-5 19 -11 39h-368zM336 498v228q0 11 2.5 23t10 21.5t20.5 15.5t34 6h188q31 0 51.5 -14.5t20.5 -52.5v-227h-327z" />
    <glyph glyph-name="panorama_time" unicode="&#xea16;" 
d="M478 212q0 -9 -6 -15t-15 -6h-44q-9 0 -15.5 6t-6.5 15v230q0 9 -5 15.5t-11.5 6.5t-11.5 6t-5 15v12q0 8 6 16t15 9q2 1 11 11q13 16 13 30h54q9 0 15 -6t6 -15v-330zM617 212q0 -9 -6.5 -15t-14.5 -6h-45q-9 0 -15 6t-6 15v230q0 9 -5 15.5t-12 6.5t-12 6t-5 15v12
q0 8 6.5 16t14.5 9q3 1 12 11q13 16 13 30h54q8 0 14.5 -6t6.5 -15v-330zM978 897h-909q-21 0 -35.5 -10t-14.5 -24v-156q0 -14 14.5 -24t35.5 -10h63q2 -40 -1 -90t-13 -131.5t-39 -183.5t-74 -203q-18 -38 5 -56.5t80 -18.5h92v-71q0 -22 14.5 -37.5t34.5 -15.5h645
q21 0 35.5 15.5t14.5 37.5v754h52q20 0 35 10t15 24v156q0 14 -15 24t-35 10zM174 58q-46 0 -64 15t-4 46q35 81 57.5 165.5t31 142t11 113t1.5 73t-2 26.5v0q2 14 14.5 24t28.5 10h498q16 0 26.5 -10t8.5 -24q1 -14 1.5 -39t-1 -95t-7 -132.5t-20 -135.5t-35.5 -120
q-12 -21 -16 -27.5t-14 -16.5t-22.5 -12.5t-33.5 -2.5h-459zM858 -9q0 -22 -15 -37t-35 -15h-508q-12 0 -19.5 1t-15.5 6t-11.5 16t-3.5 28h422q21 0 36 4t23.5 7t18.5 15.5t14 18.5t16 27q65 135 78 421v-492v0z" />
    <glyph glyph-name="yinyong" unicode="&#xeb09;" 
d="M485.5 697q-5.5 17 -21.5 25t-33 3q-73 -25 -135.5 -59.5t-103.5 -69.5t-74.5 -76t-51.5 -74.5t-32 -67.5q-29 -52 -29 -112q0 -93 66 -159t159.5 -66t159.5 66t66 159q0 81 -51.5 143t-128.5 78v0q-16 7 -21 17t1 20.5t10 16t9 9.5q78 58 183 92q17 6 25 22t2.5 33z
M1018 697q-6 17 -22 25t-33 3q-73 -25 -135 -59.5t-103.5 -69.5t-74.5 -76t-51.5 -74.5t-31.5 -67.5q-30 -52 -30 -112q0 -93 66 -159t159.5 -66t159.5 66t66 159q0 81 -51 143t-129 78v0q-16 7 -20.5 17t1 20.5t10 16t8.5 9.5q78 58 183 92q17 6 25.5 22t2.5 33z" />
    <glyph glyph-name="tupian" unicode="&#xeb17;" 
d="M324.5 577q35.5 0 60.5 -25.5t25 -61t-25 -61t-60.5 -25.5t-60.5 25.5t-25 61t25 61t60.5 25.5zM190 132l147 198l98 -123h24l172 345l147 -420h-588zM803 495v-363q0 -20 -14.5 -34.5t-34.5 -14.5h-540q-20 0 -34.5 14.5t-14.5 34.5v445q0 20 14.5 34.5t34.5 14.5h457
v74h-530q-21 0 -35 -14.5t-14 -34.5v-593q0 -20 14 -34.5t35 -14.5h686q21 0 35 14.5t14 34.5v437h-73zM802 756h74v-187h-74v187zM746 700h186v-74h-186v74z" />
    <glyph glyph-name="shangdian" unicode="&#xea01;" 
d="M988 565v-119q0 -57 -29 -91v-330q0 -49 -37 -84.5t-89 -35.5h-649q-51 0 -87.5 35.5t-36.5 84.5l-1 330q-30 38 -30 90q0 41 1 60l-1 60l175 300h610zM120 25q0 -24 19 -42t45 -18h649q26 0 46.5 18t20.5 42v60h-781zM120 145h780v183q-13 -3 -33 -3q-41 0 -77 21.5
t-57 55.5q-18 -34 -49.5 -55.5t-64.5 -21.5t-65.5 19t-44.5 48q-13 -29 -45.5 -48t-67.5 -19q-32 0 -63.5 20.5t-49.5 52.5q-15 -32 -47 -52.5t-58 -20.5q-49 0 -58 3v-183zM88 445q0 -29 27 -45t64 -16q34 0 62.5 19t28.5 42h28q0 -27 30.5 -43.5t68.5 -16.5q34 0 65.5 19
t31.5 41h29q0 -22 31 -41t65 -19q36 0 68 19t32 41h28q0 -22 41 -41t79 -19q62 0 63 60v0v60h-842v-60zM931 565h-1l-143 240h-557l-139 -240h840z" />
    <glyph glyph-name="yonghuzumingcheng" unicode="&#xea36;" 
d="M611 817q-102 0 -174 -72.5t-72 -174.5q0 -69 35.5 -127.5t94.5 -89.5q-123 -38 -201 -142.5t-78 -235.5q0 -10 7 -17t16.5 -7t16.5 7t7 17q0 94 46.5 174.5t126.5 127t173 46.5q1 0 3 0.5l2 0.5q101 1 172.5 73t71.5 173q0 102 -72.5 174.5t-174.5 72.5zM611.5 371
q-82.5 0 -141 58.5t-58.5 141t58.5 141t141 58.5t141 -58.5t58.5 -141t-58.5 -141t-141 -58.5zM891 254q-7 7 -16.5 7t-16.5 -7t-7 -16.5t7 -16.5q101 -102 101 -246q0 -10 7 -17t17 -7t17 7t7 17q0 79 -30 151t-86 128zM362 365v0v0q0 10 -7 16.5t-16 6.5q-65 0 -110 48.5
t-45 117t45 117t110 48.5q9 0 16 7t7 17t-7 16.5t-16 6.5q-84 0 -143 -62t-59 -150q0 -58 27 -106.5t73 -77.5q-97 -34 -158 -122t-61 -199q0 -9 6.5 -16t16.5 -7t17 7t7 16q0 121 80 206.5t193 85.5q10 0 17 7t7 17z" />
    <glyph glyph-name="panorama_joinuser" unicode="&#xea18;" horiz-adv-x="1026" 
d="M75 596v40h34v51h-38q-29 0 -50 -20.5t-21 -50t21 -50.5t50 -21h38v51h-34zM109 636h167v-40h-167v40zM448 33h-176q-73 0 -124.5 51.5t-51.5 124.5v304h32v-304q0 -59 42 -101.5t102 -42.5h176v-32v0zM1024 319h-32v401q0 59 -42.5 101.5t-101.5 42.5h-578
q-59 0 -101.5 -42.5t-42.5 -101.5h-32q0 73 52 124.5t124 51.5h578q72 0 124 -51.5t52 -124.5v-401zM514 146q-7 -106 62.5 -186t175 -87.5t185.5 62t87.5 175.5t-62 186t-175.5 88l-18 -256zM487 174l254 -18l-172 188q-75 -69 -82 -170zM774 434q-110 8 -191 -67l172 -188
h1z" />
    <glyph glyph-name="panorama_joindevice" unicode="&#xea19;" horiz-adv-x="1028" 
d="M517 146q-8 -106 61.5 -186t175.5 -87.5t186 62t87 175.5t-62.5 186t-174.5 87l-18 -255zM489 174l254 -18l-172 187q-75 -69 -82 -169zM776 434q-109 7 -191 -68l172 -187l1 -1zM297 735q-4 9 -6 14q-3 6 -6 10q-3 5 -8 8t-13 3t-13 -3q-6 -3 -9 -8t-6 -12
q-4 -10 -5 -12l-48 -122q-3 -7 -4 -11t-1 -8q0 -7 5.5 -12t12.5 -5q8 0 12 5t9 19l9 24h76l9 -24l4 -10t4.5 -8t5.5 -4.5t8 -1.5q7 0 12.5 5.5t5.5 11.5t-6 20zM236 653l27 77l29 -77h-56zM482 480h-315q-7 0 -11.5 4.5t-4.5 11.5t4.5 11.5t11.5 4.5h315q7 0 11.5 -4.5
t4.5 -11.5t-4.5 -11.5t-11.5 -4.5zM482 383h-315q-7 0 -11.5 5t-4.5 11.5t4.5 11t11.5 4.5h315q7 0 11.5 -4.5t4.5 -11t-4.5 -11.5t-11.5 -5zM529 -128h-352q-72 0 -123.5 51.5t-51.5 124.5l-2 672q0 73 51.5 124.5t124.5 51.5h672q73 0 124.5 -51.5t51.5 -124.5l2 -352
q0 -6 -5 -11t-11.5 -5t-11 5t-4.5 11l-2 352q0 60 -42 102t-102 42h-672q-60 0 -102 -42t-42 -102l2 -672q0 -60 42 -102t101 -42h352q7 0 11.5 -4.5t4.5 -11.5t-4.5 -11.5t-11.5 -4.5z" />
    <glyph glyph-name="shangpin" unicode="&#xe998;" 
d="M964 -18l-33 520q0 29 -21 49t-50 20h-141v82q0 88 -60 146q-60 60 -147 60q-86 0 -146.5 -60.5t-60.5 -145.5v-82h-141q-30 0 -50.5 -20.5t-20.5 -48.5l-33 -520v-1q0 -30 21 -50.5t50 -20.5h760q29 0 49.5 21t20.5 50l3 1v0zM378 652q0 55 39 94t95 39t95 -39.5
t39 -93.5v-82h-268v82v0zM187 512h114l2 -83q-14 -14 -14 -35q0 -25 21 -41q10 -14 28 -14q19 0 28 14q21 13 21 41q0 21 -15 35v83h272l-1 -83q-15 -14 -15 -35q0 -25 21 -41q10 -14 28 -14q19 0 28 14q21 13 21 41q0 21 -14 35l2 83h105q31 0 40 -7.5t10 -42.5
q1 -58 14 -226t13 -221q0 -17 -11 -30.5t-26 -13.5h-700h-8h-8l-6 3t-10.5 9.5t-6.5 16.5q0 50 14.5 237t16.5 230q1 13 2.5 21t10 16t23.5 8z" />
    <glyph glyph-name="hotword" unicode="&#xea42;" 
d="M512 896q-163 0 -296 -94.5t-185 -249.5l68 -23q46 132 159.5 213.5t253.5 81.5q161 0 282.5 -104.5t147.5 -260.5l-63 42l-40 -60l125 -84q9 -6 20 -6q9 0 17 5q20 10 20 32q0 103 -40.5 197t-108.5 162.5t-162.5 108.5t-197.5 40v0zM512 -48q-161 0 -282.5 104
t-147.5 260l63 -42l40 61l-125 83q-18 12 -37.5 1.5t-19.5 -31.5q0 -104 40.5 -198t108.5 -162t162.5 -108.5t197.5 -40.5q163 0 296 95t185 249l-68 24q-45 -133 -159 -214t-254 -81v0v0zM308 199l32 -42q12 12 28 26q16 16 51 39q14 10 20 14q-8 28 -12 57l-49 -37v207
h-99v-51h47v-170q2 -30 -18 -43v0zM427 505h237v-47h-237v47zM409 539q-13 15 -35 43q-23 27 -36 42l-45 -26q13 -14 33 -42q24 -31 36 -47zM678 151q71 0 67 65v390h-306v-48h251v-324q4 -35 -36 -30h-67q8 -33 10 -53h81zM449 406v-172h186v172h-186zM587 278h-89v83h89
v-83z" />
    <glyph glyph-name="newsVerify" unicode="&#xea26;" 
d="M233.5 129q-19.5 0 -33 13.5t-13.5 32.5v674q0 20 13.5 33.5t33 13.5t33 -13.5t13.5 -33.5v-674q0 -19 -13.5 -32.5t-33 -13.5zM396 129q-19 0 -33 13.5t-14 32.5v582q0 19 14 33t33 14t33 -14t14 -33v-582q0 -19 -14 -32.5t-33 -13.5zM558 129v0q-19 0 -32.5 13.5
t-13.5 32.5l1 466q0 19 13.5 33t32.5 14v0q20 0 33.5 -14t13.5 -33l-1 -466q0 -19 -13.5 -32.5t-33.5 -13.5zM813 129q-16 0 -29 10t-17 26l-139 606q-4 19 6.5 35.5t29 20.5t35 -6t20.5 -29l139 -606q4 -19 -6 -35.5t-29 -20.5q-5 -1 -10 -1zM838 -128h-651
q-77 0 -132 54.5t-55 131.5v211q0 19 14 32.5t33 13.5t32.5 -13.5t13.5 -32.5v-211q0 -38 27.5 -65.5t66.5 -27.5h651q38 0 65.5 27.5t27.5 65.5v211q0 19 13.5 32.5t32.5 13.5t33 -13.5t14 -32.5v-211q0 -77 -54.5 -131.5t-131.5 -54.5z" />
    <glyph glyph-name="access_user" unicode="&#xea1d;" 
d="M618 464q65 27 135 27h6.5h6.5q34 85 17 184q-19 109 -109 172.5t-198 44.5q-54 -10 -101.5 -35t-82 -61.5t-50 -85t-6.5 -101.5q10 -60 39 -116l-262 -377q-7 -10 -10.5 -26.5t-1.5 -29.5l11 -64q-1 7 -2 15l-1 7v-2q10 -43 15 -43l86 -1q12 2 26 11.5t21 19.5l103 162
l1 1l90 -7l121 189h0.5h0.5q17 23 36 42q47 48 109 74zM70 76l-13 -5l1 14l251 363l15 -14zM450 745q30 43 81 52t93.5 -21t51.5 -81.5t-21 -94.5q-7 -10 -15 -16.5t-14.5 -9.5t-16 -1.5t-15.5 3t-18 8.5t-17.5 11t-19.5 14t-20 15q-7 4 -21 14t-20 14t-16 12.5t-13.5 14
t-8.5 14t-4 15.5t4 17t10 20zM749 421q-114 0 -194.5 -80t-80.5 -194t80.5 -194.5t194.5 -80.5t194.5 80.5t80.5 194.5t-80.5 194t-194.5 80zM908 34q0 -50 -152 -50q-154 0 -154 50v11q0 21 30.5 42t70.5 36q3 1 6 4t6 10.5t-2 18.5q-18 18 -29 45t-11 54q0 41 23.5 64
t58.5 23t59 -23t24 -64q0 -57 -41 -99h1q-6 -12 -3 -20t5.5 -10.5t4.5 -2.5q41 -14 72 -35t31 -43v-11z" />
    <glyph glyph-name="sensitiveword" unicode="&#xea43;" 
d="M511.5 893q-103.5 0 -197.5 -40t-162.5 -108.5t-108.5 -162.5t-40 -197.5t40 -198t108.5 -162.5t162.5 -108.5t197.5 -40.5t198 40.5t162.5 108.5t108.5 162.5t40.5 198t-40.5 197.5t-108.5 162.5t-162.5 108.5t-198 40zM957 384q0 -162 -103 -285l-63 62v416
q0 39 -15 52q-13 11 -51 11h-290q-25 0 -25 -25q0 -22 25 -22h293q15 0 15 -16v-367l-54 53v119q0 30 -12.5 42t-41.5 12h-118l-55 54h233q24 0 24 24t-24 24h-276q-2 0 -4 -1l-17 17v1q0 2 -2.5 5t-7.5 8.5t-15 13.5q-19 17 -30 28l-117 116q124 104 286 104
q90 0 172.5 -35.5t142.5 -95t95 -142t35 -173.5zM475 380q0 4 2 7l142 -142h-135q-9 0 -9 12v123zM562 390h71q8 0 8 -10v-69zM66 384q0 85 30 161.5t85 137.5l258 -258v-1q-12 -11 -12 -42v-127q0 -24 7 -37q-8 5 -17 3t-18 -15q-8 -10 -16 -21t-18 -20q-6 -7 -10.5 -11.5
l-6.5 -6.5l14 294q0 25 -13.5 39.5t-39.5 12.5q-20 -1 -40 -3t-40 -3q-14 -1 -18 -6.5t-4 -19.5q0 -15 4.5 -19.5t19.5 -3.5l70 6q12 1 12 -8q-3 -73 -7.5 -149t-7.5 -149q0 -22 9 -38.5t23 -16.5q21 0 68 48q48 49 48 66q0 4 -2 9q11 -7 35 -7h156q15 0 26 3l69 -68
q-17 -7 -37 -7q-36 0 -82 23q-14 6 -22.5 7t-14 -2t-8 -9t-2.5 -13q0 -11 13.5 -20.5t40.5 -18.5h-1q46 -16 84 -16q22 0 39 7q15 5 25 13l45 -45q-60 -54 -137 -84t-161 -30q-91 0 -173.5 35t-142 95t-95 142.5t-35.5 172.5v0z" />
    <glyph glyph-name="xitong" unicode="&#xea1c;" 
d="M517 291l42 -41l-27 -27q-2 -2 -4.5 -6t-1.5 -16.5t12 -24.5l211 -209q1 -1 2.5 -2t6.5 -3.5t9.5 -3.5t11.5 0.5t13 5.5l106 102q2 3 4.5 8t1 17.5t-12.5 22.5l-209 207l-2.5 2.5t-7 4.5t-11 4t-13 -0.5t-14.5 -7.5l-27 -28l-45 44zM488 412l-226 223v69l-134 79l-66 -64
l81 -128l71 -1l223 -219zM123 36q0 4 1 10t10 15.5t25 9.5q4 0 9 -1.5t14.5 -10t9.5 -23.5q0 -3 -1 -8t-10 -14.5t-23 -10.5l-30 -29q2 -2 5 -4.5t13 -7t20.5 -6t25.5 2t29 15.5l403 432q5 -3 14 -8t38 -13t58 -8q10 0 25 1t53.5 14t66.5 37q5 4 13 11.5t26 32.5t28.5 52.5
t10.5 69t-18 84.5l-144 -140l-122 121l144 138q-4 2 -10.5 5.5t-29.5 8.5t-46.5 4.5t-59 -10.5t-70.5 -32q-3 -2 -7.5 -5.5t-16.5 -15.5t-22 -25.5t-21 -35t-17 -44.5q-1 -3 -2.5 -10t-3 -28.5t1 -42t12.5 -49t28 -52.5l-453 -372q-2 -1 -3.5 -3.5t-6 -9.5t-6.5 -14
t-3 -18.5t4 -23.5l38 11v0zM123 36q0 -3 1.5 -8.5t10.5 -14.5t23 -10l-30 -29q-39 33 -43 51z" />
    <glyph glyph-name="ydh" unicode="&#xeaa1;" 
d="M890 -93h-756q-41 0 -70.5 29t-29.5 70v756q0 42 29.5 71t70.5 29h756q41 0 70.5 -29t29.5 -71v-756q0 -41 -29.5 -70t-70.5 -29v0v0zM921 737q0 23 -16.5 39.5t-39.5 16.5h-706q-22 0 -39 -24.5t-17 -49.5v-688q0 -23 16.5 -39t39.5 -16h706q23 0 39.5 16t16.5 39v706z
M565 471q-32 8 -45 -12q-12 -18 9 -31q7 -4 16 -6l177 -30l-223 -131l-323 184l356 192l311 -174l-113 -66zM497 202l163 102l40 -37l-204 -129l-263 152l43 43zM756 408h22v-29h18v-185h-18v-18h-22v18h-22v185h22v29z" />
    <glyph glyph-name="undo" unicode="&#xeb01;" horiz-adv-x="1025" 
d="M512 753q-86 0 -163 -32.5t-135 -90.5l-124 123v-316h317l-119 118q93 93 224 93t223.5 -93t92.5 -224q0 -69 -28 -131t-79 -106l70 -79q67 59 105 141t38 175q0 115 -56.5 212t-153.5 153.5t-212 56.5v0z" />
    <glyph glyph-name="h3" unicode="&#xeb07;" 
d="M477 201q0 -25 1 -37t4.5 -19.5t7.5 -12t12 -8.5t24 -8v-21h-177v21q24 6 33 13t12.5 22t3.5 50v176h-234v-176q0 -29 2 -42t6.5 -20.5t13 -12.5t28.5 -10v-21h-178v21q26 7 35 15t12 23t3 47v364q0 29 -2.5 42t-7 20.5t-13 12t-27.5 9.5v21h177v-21q-18 -4 -26 -9
t-13 -11.5t-7.5 -20.5t-2.5 -43v-149h234v149q0 36 -3.5 49.5t-12 21t-32.5 13.5v21h176v-21q-24 -5 -33 -12.5t-12.5 -22.5t-3.5 -49v-364zM644 551v80q49 23 91.5 34.5t82.5 11.5q47 0 83 -15t55 -42.5t19 -65.5q0 -36 -14.5 -63t-40.5 -48q-26 -20 -67 -39v-4
q26 -4 49.5 -15.5t42 -29t30 -42t11.5 -56.5q0 -49 -21.5 -87t-65.5 -59.5t-106 -21.5q-36 0 -78 8t-77 21v90h50q15 -44 39.5 -64t65.5 -20q55 0 83 30t28 89q0 61 -37 93.5t-109 32.5h-38v37q57 3 96 22t58 48t19 65q0 47 -25 72t-72 25q-40 0 -64.5 -21.5t-36.5 -65.5
h-51v0z" />
    <glyph glyph-name="h21" unicode="&#xeb06;" 
d="M483 192q0 -25 1 -37t4 -19.5t7 -12t12 -8.5q9 -4 25 -8v-21h-178v21q23 6 32.5 13t13 22t3.5 50v178h-236v-178q0 -29 2 -42t6.5 -20.5t13.5 -12.5q8 -5 28 -10v-21h-179v21q27 6 35.5 14.5t11.5 23.5t3 47v367q0 29 -2 42.5t-7 21t-13 12t-28 9.5v21h179v-21
q-19 -5 -27 -9.5t-13 -11.5t-7 -21q-3 -14 -3 -43v-150h236v150q0 37 -3.5 50.5t-12 20.5t-33.5 14v21h178v-21q-24 -6 -33.5 -13.5t-12.5 -22t-3 -49.5v-367zM809 155q21 0 33 3q13 2 20.5 8t12.5 16q4 8 11 29h36l-7 -124h-349v21q18 44 49 91q31 46 88 110q49 54 70 82
q24 30 36 52.5t17 42.5t5 39q0 32 -10.5 56.5t-31.5 38.5t-52 14q-80 0 -107 -88h-52v81q52 24 96 35q45 11 81 11q79 0 119 -34.5t40 -100.5q0 -22 -4 -41q-5 -19 -14.5 -37.5t-25.5 -39.5t-36 -43q-19 -22 -67 -73q-81 -86 -118 -149h160v0z" />
    <glyph glyph-name="H1" unicode="&#xeb05;" 
d="M477 197q0 -25 1.5 -37t4.5 -19.5t7 -12t12 -8.5t24 -8v-21h-177v21q24 6 33 13t12.5 22t3.5 50v177h-235v-177q0 -29 2 -42t7 -20q4 -8 13 -13t28 -10v-21h-178v21q26 7 35 15t12 23q2 15 2 47v365q0 29 -2 42t-6.5 20.5t-13.5 12.5q-7 4 -27 10v20h178v-20
q-19 -5 -27 -10q-8 -4 -13 -11t-7.5 -21t-2.5 -43v-150h235v150q0 36 -3.5 50t-12 21t-33.5 14v20h177v-20q-24 -6 -33 -13.5t-12.5 -22.5t-3.5 -49v-365zM871 201q0 -24 3 -37q2 -12 9 -20t20 -12.5t33 -6.5t53 -3v-31h-312v31q47 2 67 6q20 3 30.5 10.5t15 20.5t4.5 42
v343q0 16 -5.5 24t-17.5 8q-13 0 -38 -14t-62 -38l-18 32l197 118h23q-2 -40 -2 -112v-361z" />
    <glyph glyph-name="dropdown" unicode="&#xea0b;" 
d="M686 463l-174 -174l-174 174q-6 6 -14 6t-14 -6t-6 -14t6 -13l177 -178q11 -10 25 -10t25 10l177 178q6 5 6 13t-6 14t-14 6t-14 -6zM512 829q-91 0 -173.5 -35t-142 -94.5t-94.5 -142t-35 -173.5t35 -173.5t94.5 -142t142 -94.5t173.5 -35t173.5 35t142 94.5t94.5 142
t35 173.5t-35 173.5t-94.5 142t-142 94.5t-173.5 35zM512 -22q-110 0 -204 54t-148 148t-54 204t54 204t148 148t204 54t204 -54t148 -148t54 -204t-54 -204t-148 -148t-204 -54z" />
    <glyph glyph-name="yidianhaoleibie" unicode="&#xea2e;" 
d="M772 399l-235 2q1 176 1 232q0 93 69.5 159.5t164.5 66.5q93 0 159 -66t66 -160t-66.5 -164t-158.5 -70zM775 792q-65 0 -116.5 -46.5t-51.5 -109.5v-1v0.5v0.5v-167q121 -1 168 -1q64 0 110 51t46 117q0 64 -45.5 110t-110.5 46zM259 -110q-94 0 -162 68.5t-68 161.5
q0 94 68 164t162 70l234 -1q-1 -177 -1 -233q0 -93 -70 -161.5t-163 -68.5zM423 117v168h-168q-64 0 -110 -50.5t-46 -116.5q0 -65 45.5 -110.5t110.5 -45.5t116.5 46t51.5 109l1 2l-0.5 -0.5t-0.5 -1.5zM29 633q0 94 68 162t162 68q93 0 163 -68t70 -162q0 -25 0.5 -82.5
t0.5 -104.5t0 -45q-166 -2 -234 -2q-94 0 -162 70t-68 164v0zM423 636l0.5 -0.5l0.5 -0.5l-1 1q0 63 -51.5 109.5t-116.5 46.5t-110.5 -46t-45.5 -110q0 -66 46 -117t110 -51q21 0 62.5 0.5t74 0.5t31.5 0v167zM1001 120q0 -93 -68 -161.5t-161 -68.5q-94 0 -164 68.5
t-70 161.5q0 25 -0.5 83t-0.5 104.5t0 45.5q166 1 235 1q93 0 161 -70t68 -164zM607 119v-2q0 -63 51.5 -109t116.5 -46t110.5 45.5t45.5 110.5q0 66 -46 116.5t-110 50.5h-168v-168v1.5v0.5z" />
    <glyph glyph-name="redo" unicode="&#xeb02;" 
d="M90 331q0 -93 38 -175t105 -141l70 79q-51 44 -79 106t-28 131q0 131 92.5 224t223.5 93t224 -93l-119 -118h317v316l-124 -123q-58 58 -135 90.5t-163 32.5q-115 0 -212 -56.5t-153.5 -153.5t-56.5 -212z" />
    <glyph glyph-name="unie60e" unicode="&#xea23;" 
d="M690 650l-228 227v-153q-149 -19 -249.5 -132t-100.5 -265t100.5 -265t249.5 -132v101q-107 18 -178.5 101.5t-71.5 194.5t71.5 194.5t178.5 101.5v-196l228 223v0zM909 377q-14 107 -82 195l-70 -71q39 -56 51 -124h101v0zM562 32v-102q108 14 195 81l-72 72
q-56 -40 -123 -51zM757 153l70 -71q69 88 82 195h-101q-12 -68 -51 -124v0z" />
    <glyph glyph-name="yidianhaowenzhang" unicode="&#xea30;" 
d="M928 -109h-905v905q0 35 24 59t59 24h905v-905q0 -34 -24.5 -58.5t-58.5 -24.5zM64 -68h864q17 0 29.5 12.5t12.5 29.5v864h-864q-18 0 -30 -12t-12 -30v-864zM53 214h929v-59h-929v59zM255 600h524v-61h-524v61z" />
    <glyph glyph-name="empty" unicode="&#xea0d;" horiz-adv-x="1029" 
d="M1029 405l-390 390l-634 -634l161 -161h26h72h262h98h16v16zM200 64l-98 97l293 293l292 -293l-97 -97h-390z" />
    <glyph glyph-name="lunbozutu" unicode="&#xea06;" 
d="M1035 128v499q0 20 -13 36.5t-32 16.5h-68l1 7q0 25 -18.5 43t-44.5 18h-695q-25 0 -44 -21t-19 -47v1h-64q-20 0 -34.5 -14t-14.5 -34v-498v0q0 -20 14 -34t34 -14h65v-5q0 -26 18.5 -44t44.5 -18h696q60 0 61 45h68q18 0 31.5 21t13.5 42v0zM102 134h-68v500h68v-500z
M876 88q0 -5 -8.5 -14t-14.5 -9h-682q-6 0 -14.5 9t-8.5 14v592q0 5 6 12.5t11 7.5l6 3h682q5 0 14 -9t9 -14v-592zM990 111h-68v523l64 2q3 0 4 1v0v-3v-500q0 -2 1 -8.5t1 -10.5t-2 -4zM406 401q35 0 60 24t25 58.5t-25 58.5t-60 24t-60 -24t-25 -58.5t25 -58.5t60 -24z
M405.5 525q17.5 0 30 -12t12.5 -29.5t-12.5 -29.5t-30 -12t-30 12t-12.5 29.5t12.5 29.5t30 12zM804 462q-36 -9 -65.5 -24.5t-51.5 -39t-33.5 -38.5t-28.5 -42q-23 -34 -37 -48t-33 -14v0q-17 0 -34.5 5.5t-25 9.5t-25.5 15t-28 16t-28.5 10.5t-38.5 5.5q-28 0 -59 -14.5
t-57 -37.5t-39 -35.5t-22 -23.5l-5 -54q0 -8 6.5 -13.5t15.5 -5.5h594q9 0 15.5 5.5t6.5 13.5v289q0 10 -8.5 16.5t-18.5 3.5zM788 175h-552q91 102 139 102q30 0 72 -26q19 -11 30 -16.5t32.5 -12t44.5 -7.5h3q18 0 33 6t28.5 20t21 24.5t21.5 30.5q25 40 53 66.5t74 43.5
v-231z" />
    <glyph glyph-name="quanzi" unicode="&#xe991;" 
d="M93 -67q-19 0 -30 14q-7 9 -6.5 24.5t5 32.5t18.5 59q16 49 23 75q12 42 10 51q-45 93 -45 196q0 91 35.5 174.5t96 144t144 96t175 35.5t174.5 -35.5t143.5 -96t96 -144t35.5 -174.5t-35.5 -174.5t-96 -144t-143.5 -96t-175 -35.5q-117 0 -219 57h-3q-25 0 -117 -34
q-68 -25 -86 -25zM296 52q19 0 31 -7q89 -50 191 -50q106 0 196 52t142 142t52 196t-52 195.5t-142 142t-196 52.5t-195.5 -52.5t-142 -142t-52.5 -195.5q0 -90 39 -170q5 -11 5.5 -26t-4.5 -39t-12 -46t-19 -59v-1q-9 -29 -14 -42l36 12q102 38 137 38zM511 101
q-117 0 -200 83t-83 200t83 200t200 83t200 -83t83 -200t-83 -200t-200 -83zM511 607q-92 0 -157.5 -65.5t-65.5 -157.5t65.5 -157.5t157.5 -65.5t157.5 65.5t65.5 157.5t-65.5 157.5t-157.5 65.5zM511 261q-51 0 -87 36t-36 87t36 87t87 36t87 -36t36 -87t-36 -87t-87 -36z
M511 447q-26 0 -44.5 -18.5t-18.5 -44.5t18.5 -44.5t44.5 -18.5t44.5 18.5t18.5 44.5t-18.5 44.5t-44.5 18.5z" />
    <glyph glyph-name="recycleNews" unicode="&#xea24;" 
d="M607 639q0 14 -9 24.5t-22.5 10.5t-23 -10.5t-9.5 -24.5v-252q0 -16 12 -27l161 -161q8 -8 20.5 -7.5t22 10t10 22t-7.5 21.5q-150 149 -152 152l-2 5v237zM575 832q-155 0 -276 -95.5t-158 -242.5l-81 122q-8 12 -21.5 15.5t-24.5 -4t-13 -21t6 -26.5l117 -177
q9 -13 19 -15q14 -2 31 6l184 121q13 9 16.5 22.5t-3.5 24.5t-21.5 13t-26.5 -6l-116 -77q6 21 14 41q30 69 83 122.5t122 82.5q71 30 149 30t150 -30q69 -29 122 -82.5t82 -122.5q30 -71 30 -149t-30 -149q-29 -69 -82 -122.5t-122 -82.5q-72 -30 -150 -30t-149 30
q-69 29 -122 82q-30 30 -52 65v0q-10 14 -27 14q-13 0 -22.5 -9.5t-9.5 -22.5q0 -10 6 -19q61 -94 160.5 -149t215.5 -55q91 0 174 35.5t143 95.5t95.5 143t35.5 174t-35.5 174t-95.5 143t-143 95.5t-174 35.5z" />
    <glyph glyph-name="tiezi" unicode="&#xe995;" 
d="M860 806h-696q-30 0 -51.5 -21.5t-21.5 -51.5v-696q0 -31 21.5 -52.5t51.5 -21.5h696q30 0 51.5 21.5t21.5 52.5v696q0 30 -21.5 51.5t-51.5 21.5zM897 37q0 -16 -11 -26.5t-26 -10.5h-696q-15 0 -26 10.5t-11 26.5v696q0 15 11 25.5t26 10.5h696q15 0 26 -10.5t11 -25.5
v-696zM765 604h-506q-7 0 -12.5 -5t-5.5 -12.5t5.5 -13t12.5 -5.5h506q7 0 12.5 5.5t5.5 13t-5.5 12.5t-12.5 5zM765 403h-506q-7 0 -12.5 -5.5t-5.5 -13t5.5 -13t12.5 -5.5h506q7 0 12.5 5.5t5.5 13t-5.5 13t-12.5 5.5zM765 201h-506q-7 0 -12.5 -5t-5.5 -12.5t5.5 -13
t12.5 -5.5h506q7 0 12.5 5.5t5.5 13t-5.5 12.5t-12.5 5z" />
    <glyph glyph-name="unie6672" unicode="&#xe996;" 
d="M512 -121q-16 0 -28 11l-116 117q-11 12 -11 27.5t11 27.5q8 8 17.5 10.5t19.5 0t18 -10.5l89 -89l89 89q12 11 28 11h271q16 0 27.5 11.5t11.5 27.5v622q0 15 -11.5 26.5t-27.5 11.5h-776q-16 0 -27.5 -11.5t-11.5 -26.5v-622q0 -16 11.5 -27.5t27.5 -11.5h116
q16 0 27.5 -11.5t11.5 -27t-11.5 -27t-27.5 -11.5h-116q-49 0 -83 34t-34 82v622q0 48 34 82t83 34h776q49 0 83 -34t34 -82v-622q0 -48 -34 -82t-83 -34h-256l-104 -106q-12 -11 -28 -11v0zM298.5 384q-24.5 0 -41.5 17t-17 41.5t17 41.5t41.5 17t41.5 -17t17 -41.5
t-17 -41.5t-41.5 -17zM531.5 384q-24.5 0 -41.5 17t-17 41.5t17 41.5t41.5 17t41.5 -17t17 -41.5t-17 -41.5t-41.5 -17zM764.5 384q-24.5 0 -41.5 17t-17 41.5t17 41.5t41.5 17t41.5 -17t17 -41.5t-17 -41.5t-41.5 -17z" />
    <glyph glyph-name="untitled22" unicode="&#xe993;" 
d="M886 -52h-747q-52 0 -88.5 36.5t-36.5 88.5v601q0 52 36.5 88.5t88.5 36.5h41v-104q0 -17 12.5 -29t29.5 -12h124q17 0 29.5 12t12.5 29v104h249v-104q0 -17 12 -29t29 -12h125q17 0 29 12t12 29v104h42q51 0 87.5 -36.5t36.5 -88.5v-601q0 -52 -36.5 -88.5t-87.5 -36.5z
M211 93h457q13 0 22 9.5t9 22t-9 22t-22 9.5h-457q-12 0 -21.5 -9.5t-9.5 -22t9 -22t22 -9.5zM180 311q0 -13 9 -22t22 -9h457q13 0 22 9t9 22v0q0 13 -9 22t-22 9h-457q-12 0 -21.5 -9t-9.5 -22v0zM844 498q0 13 -9 22t-22 9h-602q-12 0 -21.5 -9t-9.5 -22v0q0 -13 9 -22
t22 -9h602q13 0 22 9t9 22v0zM780 695h-79q-9 0 -16 6.5t-7 15.5v80q0 9 9 16t19 7h74q10 0 16.5 -7t6.5 -16v-80q0 -9 -6.5 -15.5t-16.5 -6.5zM324 695h-80q-9 0 -15.5 6.5t-6.5 15.5v80q0 9 9 16t19 7h74q9 0 15.5 -7t6.5 -16v-80q0 -9 -6.5 -15.5t-15.5 -6.5z" />
    <glyph glyph-name="unie604" unicode="&#xe932;" 
d="M830 14.5q69 68.5 106 157.5t37 186.5t-37 186t-106 157.5q-34 35 -74 61.5t-83.5 44.5t-90.5 27.5t-96 9.5q-38 0 -76 -6t-74 -18t-70 -29t-65 -39.5t-59 -50.5q-68 -69 -105 -157.5t-37 -186t37 -186.5t105.5 -157.5t157.5 -105.5t186.5 -37t186 37t157.5 105.5z
M51 358q0 89 34.5 169.5t93 139t139 93t168.5 34.5q71 0 137.5 -22t120 -62.5t94 -94t62.5 -120t22 -137.5q0 -180 -128 -307.5t-308 -127.5q-88 0 -168.5 34.5t-139 93t-93 139t-34.5 168.5v0zM504 59l205 205q8 7 8 17.5t-7.5 18t-18 7.5t-18.5 -7l-161 -161v527
q0 10 -7.5 17.5t-18 7.5t-18 -7.5t-7.5 -17.5v-527l-161 161q-5 5 -11.5 6.5t-13.5 0t-12 -6.5q-7 -8 -7 -18.5t8 -17.5l204 -205q8 -8 18.5 -8t18.5 8h-1z" />
    <glyph glyph-name="untitled144" unicode="&#xea04;" 
d="M907 194h-208l-43 78l-181 -76l43 -43l-59 -205l-205 -59l-147 146l59 206l205 59l57 -57l198 83l-31 55l52 93l-10 -10l-249 142v-38l-187 -104l-187 104v207l187 104l187 -104v-95l280 -168l31 56h208l103 -187zM349 234l-139 -37l-37 -140l103 -102l139 37l37 139
l-103 103v0zM326 744l-125 73l-124 -73v-145l124 -73l125 73v145zM876 506h-146l-72 -125l72 -125h146l72 125z" />
    <glyph glyph-name="listol" unicode="&#xeb11;" 
d="M285 64q0 -35 -24 -55t-60 -20q-47 0 -76 29l25 39q22 -20 47 -20q13 0 22.5 6t9.5 19q0 28 -47 25l-11 24q3 5 14 19.5t19 23.5t16 17v1q-7 0 -21.5 -0.5t-21.5 -0.5v-23h-46v67h147v-39l-42 -51q22 -5 35.5 -21.5t13.5 -39.5v0zM286 341v-70h-160q-3 16 -3 24
q0 22 10.5 41t25 30t29 20.5t25 19.5t10.5 20q0 11 -6.5 17t-17.5 6q-20 0 -36 -26l-37 26q10 23 31 35.5t47 12.5q32 0 54 -18.5t22 -49.5q0 -22 -15 -40.5t-33 -28.5t-33 -22t-16 -23h56v26h47v0zM908 200v-84q0 -6 -4.5 -10.5t-10.5 -4.5h-536q-6 0 -10.5 4.5t-4.5 10.5
v84q0 7 4 11t11 3h536q6 0 10.5 -4t4.5 -10zM286 597v-43h-148v43h47q0 18 0.5 54t0.5 53v6h-1q-4 -8 -22 -24l-32 33l60 56h47v-178h48v0zM908 426v-84q0 -6 -4.5 -10t-10.5 -5h-536q-6 0 -10.5 4.5t-4.5 10.5v84q0 7 4 11t11 4h536q6 0 10.5 -4.5t4.5 -10.5zM908 652v-84
q0 -6 -4.5 -10t-10.5 -4h-536q-6 0 -10.5 4t-4.5 10v84q0 6 4.5 10.5t10.5 4.5h536q6 0 10.5 -4.5t4.5 -10.5z" />
    <glyph glyph-name="newsChannel1" unicode="&#xea27;" 
d="M953 825h-882q-26 0 -44.5 -18.5t-18.5 -44.5v-756q0 -26 18.5 -44.5t44.5 -18.5h882q26 0 44.5 18.5t18.5 44.5v756q0 26 -18.5 44.5t-44.5 18.5zM953 6h-882v567h441v189h441v-756z" />
    <glyph glyph-name="score" unicode="&#xea44;" 
d="M324.5 472q-90.5 0 -160 26.5t-88.5 66.5q-6 -12 -6 -25q0 -49 74.5 -83.5t179.5 -34.5t179.5 34.5t74.5 83.5q0 13 -5 25q-19 -40 -88.5 -66.5t-160 -26.5zM324.5 564q-90.5 0 -160 26.5t-88.5 66.5q-6 -12 -6 -24q0 -49 74.5 -84t179.5 -35t179.5 35t74.5 84
q0 12 -5 24q-19 -40 -88.5 -66.5t-160 -26.5zM69 728q1 43 66 73.5t157 30.5q93 0 158 -30.5t65 -73.5t-65 -73.5t-158 -30.5q-92 0 -157 30t-66 73v1zM269.5 32q-90.5 0 -160 26.5t-88.5 67.5q-5 -12 -5 -25q0 -49 74 -83.5t179.5 -34.5t180 34.5t74.5 83.5q0 13 -6 25
q-19 -41 -88.5 -67.5t-160 -26.5zM269.5 125q-90.5 0 -160 26.5t-88.5 66.5q-5 -12 -5 -25q0 -49 74 -83.5t179.5 -34.5t180 34.5t74.5 83.5q0 13 -6 25q-19 -40 -88.5 -66.5t-160 -26.5zM56 328q0 16 9 32q-51 -31 -51 -71q0 -49 74.5 -83.5t179.5 -34.5q85 0 160.5 29
t98.5 68q-37 -24 -98 -41t-119 -17q-105 0 -179.5 34.5t-74.5 83.5zM308.5 259q-90.5 0 -160 26.5t-88.5 67.5q-5 -12 -5 -25q0 -49 74 -83.5t179.5 -34.5t179.5 34.5t74 83.5q0 13 -5 25q-19 -41 -88.5 -67.5t-160 -26.5zM308.5 352q-90.5 0 -160 26.5t-88.5 66.5
q-5 -12 -5 -25q0 -49 74 -83.5t179.5 -34.5t179.5 34.5t74 83.5q0 13 -5 25q-19 -40 -88.5 -66.5t-160 -26.5zM307 398q91 0 161 26.5t88 67.5q-31 -32 -93.5 -51t-138.5 -19q-105 0 -179.5 34.5t-74.5 83.5q0 13 6 25q-23 -23 -23 -49q0 -49 74.5 -83.5t179.5 -34.5z
M496 47q22 -38 90 -62.5t156 -24.5q105 0 179.5 34.5t74.5 83.5q0 13 -6 25q-19 -41 -88.5 -67.5t-159.5 -26.5q-73 0 -134 18t-93 47q-7 -17 -19 -27zM996 170q0 13 -6 25q-19 -40 -88.5 -66.5t-159.5 -26.5q-73 0 -133 17t-93 46q5 -10 5 -20t-2 -17l-3 -7q1 -4 2 -7
q33 -28 92.5 -45t131.5 -17q105 0 179.5 34.5t74.5 83.5zM516 253q5 -10 5 -19.5t-4 -15.5l-3 -7q1 -1 2 -1.5t1 -1.5q33 -28 93 -45.5t132 -17.5q105 0 179.5 35t74.5 84t-74.5 83.5t-179.5 34.5q-112 0 -188 -39q3 -18 -6.5 -41t-20.5 -36zM693 128v0v0v0zM619 455
q-25 39 -41 79q-2 -11 -7.5 -22t-10.5 -16l-4 -5q5 -11 5 -22.5t-2 -17.5l-2 -6h-1q6 -10 12 -19q20 -33 44 -60q29 8 66 12q-32 35 -59 77zM815 377q-61 45 -111 123q-48 75 -63.5 148t7.5 110q-18 -1 -32 -9q-41 -27 -30.5 -108t67.5 -170q32 -51 71 -89q46 1 91 -5z
M946.5 651q-54.5 90 -123 136t-110 20.5t-33 -107t63 -171.5t122.5 -136t110 -20.5t33.5 107t-63 171.5zM945 508q-7 14 -10.5 18.5t-11.5 7.5l-85 33l-13 -6l18 -41l-5 -3l-19 41l-23 -10q-5 -2 -4.5 -8.5t10.5 -31.5l-5 -3l-42 92l5 3q12 -24 17 -29.5t10 -2.5l23 10
l-21 47l5 3l22 -47l3 1q10 5 12 13l25 77q6 19 -4 41l5 2l35 -77l-5 -2q-11 24 -15 25q-3 1 -5 -6l-26 -80l80 -32q5 -2 5 2t-9 23l6 3l27 -61z" />
    <glyph glyph-name="quanziline" unicode="&#xe992;" 
d="M979 332q0 73 -42 132q-36 52 -92 78q-16 111 -96 191q-98 98 -237 98t-237 -98q-80 -80 -96 -191q-56 -26 -92 -78q-42 -59 -42 -132t42 -133t111 -84l-51 -178h40l59 204l-19 5q-63 17 -103 69t-40 117q0 50 25 94t67 70v0v0q0 -140 99 -238q53 -53 123 -79l-60 -242
h40l58 231q37 -8 76 -8t76 8l58 -231h40l-60 242q70 26 123 79q99 98 99 238v0q42 -26 67 -70t25 -94q0 -65 -40 -117t-103 -69l-19 -5l65 -204h41l-57 178q68 25 110 84.5t42 132.5zM512 199q-123 0 -210 87t-87 209.5t87 209.5t210 87t210 -87t87 -209.5t-87 -209.5
t-210 -87zM512 371q-40 0 -68 28t-28 68h-39q0 -56 39.5 -95.5t95.5 -39.5t95.5 39.5t39.5 95.5h-39q0 -40 -28 -68t-68 -28z" />
    <glyph glyph-name="piliangicon" unicode="&#xea08;" 
d="M890 -128h-763q-53 0 -90 37.5t-37 89.5v764q0 53 38 93t90 40h512v-57h-512q-26 0 -49 -25t-23 -51v-764q0 -26 22.5 -48t48.5 -22h763q27 0 52 22.5t25 48.5v512h57v-512q0 -52 -40.5 -90t-93.5 -38zM478 148q-12 -12 -33 -16l-278 -138q-23 -10 -38.5 5.5t-6.5 39.5
l138 279q4 20 16 33l494 495q19 18 45.5 18t44.5 -18l113 -113q18 -18 18 -44.5t-18 -45.5zM183 78q-6 -11 2.5 -19.5t19.5 -3.5l172 104l-90 91zM321 306l359 359l113 -112l-360 -360q-63 64 -112 113zM905 711l-67 67q-10 9 -23 9t-22 -9l-66 -66l111 -114l67 68
q10 9 10 22t-10 23z" />
    <glyph glyph-name="yidianhaotiaomu" unicode="&#xea2f;" 
d="M859 294h-125q-51 0 -87.5 -36.5t-36.5 -88.5v-38h-1q-36 0 -61.5 25.5t-25.5 61.5v157q1 9 0 18v154q0 36 25.5 61.5t61.5 25.5h1v-34q0 -52 36.5 -88t87.5 -36h124q52 0 88 36t36 88v124q0 51 -36 87.5t-88 36.5h-124q-51 0 -87.5 -36.5t-36.5 -87.5v-28h-26
q-51 0 -87.5 -36.5t-36.5 -87.5v-133h-13q-8 33 -32 57l-88 88q-36 36 -87.5 36t-87.5 -36l-88 -88q-37 -36 -37 -87.5t37 -88.5l88 -88q36 -36 87.5 -36t87.5 36l88 88q24 24 32 57h13v-184q0 -51 36.5 -87.5t87.5 -36.5h26v-24q0 -51 36.5 -87.5t87.5 -36.5h125
q51 0 87.5 36.5t36.5 87.5v124q0 52 -36.5 88.5t-87.5 36.5v0zM672 699q0 36 25.5 61.5t61.5 25.5h74q36 0 61.5 -25.5t25.5 -61.5v-74q0 -36 -25.5 -61.5t-61.5 -25.5h-74q-36 0 -61.5 25.5t-25.5 61.5v74zM354 347l-53 -53q-26 -26 -62 -26t-61 26l-53 53q-25 25 -25 61
t25 62l53 52q25 26 61 26t62 -26l53 -52q25 -26 25 -62t-25 -61zM921 70q0 -36 -25.5 -61.5t-61.5 -25.5h-75q-36 0 -61.5 25.5t-25.5 61.5v75q0 36 25.5 61t61.5 25h75q36 0 61.5 -25t25.5 -61v-75z" />
    <glyph glyph-name="dianji" unicode="&#xea45;" 
d="M583 371q50 39 50 102q0 52 -37 89.5t-90 37.5t-90 -37.5t-37 -89.5t35.5 -88.5t86.5 -38.5q-1 4 -2.5 13.5t-2.5 14.5q-38 4 -63.5 32.5t-25.5 66.5q0 41 29 70t70 29t70 -29t29 -70t-29 -70q1 -5 7 -32zM572 -48l25 -80l195 61l-25 80zM652 337q1 1 2 1q52 57 52 135
q0 83 -58.5 141.5t-141.5 58.5t-141.5 -58.5t-58.5 -141.5q0 -69 42 -123t108 -71q8 10 24 23q-62 10 -104 58t-42 113q0 71 50.5 121.5t121.5 50.5t121.5 -50.5t50.5 -121.5q0 -63 -40 -111q9 -8 14 -25zM549 -3q5 -7 15 -18t13 -15q75 20 169 47l6 2q13 50 15 78
q1 10 5.5 43t7 60.5t4 59t-4 52.5t-17.5 26q-6 8 -11 9l-12 1l-11 -4q-5 -2 -11 -9h-4q-3 6 -8 13t-10 7l-11 1l-12 -4q-10 -3 -17 -22q-2 0 -4 1q-10 27 -21 29l-13 3l-12 -5q-8 -2 -15 -21h-6l-17 76q-16 69 -38 76l-14 1l-12 -5q-23 -16 -5 -83l20 -79q-3 -2 -14.5 -9.5
t-14 -9.5t-11 -9t-9.5 -9.5t-6 -9.5t-4.5 -12.5t-0.5 -14.5t1.5 -18.5t5.5 -21.5t9 -27q12 -76 23.5 -105t51.5 -74v0zM517 266l15 -34l-23 8zM790 896h-580q-10 0 -17.5 -7.5t-7.5 -17.5v-874q0 -10 7.5 -17.5t17.5 -7.5h344q-12 16 -17 23q-28 31 -40 52h-243v705h492
v-404h1q7 1 12 -2q6 -1 13 -10q30 -15 22 -111q0 -3 -16 -135q-2 -15 -3.5 -26.5t-2.5 -17t-2 -9t-1 -4.5v-2q0 1 4.5 -13.5t9.5 -30t5 -14.5q10 0 18.5 7.5t8.5 16.5v874q0 10 -7.5 17.5t-17.5 7.5zM293 18h202v-16h-202v16zM605 787h-237q-10 0 -17.5 7.5t-7.5 17.5
t7.5 17.5t17.5 7.5h237q10 0 17.5 -7.5t7.5 -17.5t-7.5 -17.5t-17.5 -7.5z" />
    <glyph glyph-name="fans" unicode="&#xea46;" 
d="M570 256h-308l-153 288l153 288h308l153 -288zM301 320h237l121 224l-121 224h-237l-122 -224zM45 -83l-45 45l211 230h410l217 -230l-44 -45l-199 211h-358zM838 320h-140v64h96l83 192l-77 160h-102v64h140l103 -224zM979 32l-160 160h-128v64h154l179 -179z" />
    <glyph glyph-name="radarchart" unicode="&#xea50;" 
d="M511 896l-511 -413l199 -611h625l200 611zM880 449l-354 197v202l454 -366zM497 645l-310 -207l-140 46l450 364v-203zM174 412l104 -402l-65 -88l-174 534zM297 -11l370 79l124 -167h-559zM690 85l194 336l100 33l-173 -532z" />
    <glyph glyph-name="huodong" unicode="&#xe999;" 
d="M908 591v-60q-3 -44 34 -71q45 -34 46.5 -83.5t-42.5 -85.5q-41 -33 -39 -89q2 -33 1 -114q-1 -47 -22 -64t-66 -7q-23 6 -45 13.5t-56.5 20.5t-43.5 17q-20 7 -151.5 56t-201.5 74q-47 16 -57 7t0 -58q7 -36 14.5 -61.5t21.5 -53.5t37.5 -48t56.5 -32q26 -9 17 -30
q-8 -19 -35 -13q-83 18 -132 116q-38 75 -33 139q2 33 -13 49.5t-50 18.5q-71 5 -93.5 29.5t-22.5 97.5v64q3 39 26.5 63.5t61.5 25.5q131 5 297 68q70 27 198.5 75t158.5 59q77 30 105 11t28 -100v-34v0zM865 374v233q0 54 -15.5 64.5t-67.5 -9.5q-386 -144 -446 -165
q-2 -1 -8 -3q-22 -8 -31 -11.5t-20 -10.5t-13.5 -11t-6 -17t-3.5 -23.5v-34.5q0 -79 12.5 -97t85.5 -46h1q68 -25 213.5 -79.5t222.5 -82.5q44 -17 59.5 -6.5t16.5 56.5v243v0zM211 372v40q-1 40 -13.5 51t-51.5 6q-58 -6 -68 -61q-9 -45 1 -77.5t37 -46.5q42 -22 68.5 -6
t26.5 64v30v0zM211 372zM244 781q-13 0 -21 -9.5t-8 -27.5q0 -19 8 -28t21 -9t21.5 9t8.5 28q0 18 -8 27.5t-22 9.5v0zM244 781zM386 861h-304q-20 0 -34 -14t-14 -34v-142q0 -20 14 -34t34 -14h26l10 -33l58 32l210 1q20 0 34 14t14 34v142q0 20 -14 34t-34 14v0zM178 690
h-22v47h-42v-47h-22v107h22v-42h42v42h22v-107zM282 703q-14 -15 -37 -15q-24 0 -38.5 14.5t-14.5 40.5q0 16 5 27q4 9 10 15.5t14 9.5q10 4 23 4q24 0 38 -14.5t14 -41.5q0 -26 -14 -40v0zM387 779h-32v-89h-21v89h-32v18h85v-18zM387 779z" />
    <glyph glyph-name="paixu" unicode="&#xea03;" 
d="M949 680q0 -15 -10.5 -24t-26.5 -9h-655q-15 0 -25.5 9t-10.5 24v0q0 15 10.5 25.5t25.5 10.5h655q16 0 26.5 -10.5t10.5 -25.5v0zM949 389q0 15 -10.5 25.5t-26.5 10.5h-655q-15 0 -25.5 -10.5t-10.5 -25.5v0q0 -15 10.5 -24t25.5 -9h655q16 0 26.5 9t10.5 24v0zM949 97
q0 16 -10.5 26.5t-26.5 10.5h-655q-15 0 -25.5 -10.5t-10.5 -26.5v0q0 -14 10.5 -23t25.5 -9h655q16 0 26.5 9t10.5 23v0zM110 803h-16q-7 -14 -23 -28t-37 -24v-25q11 4 26 13t25 18v-163h25v209v0zM39 320q4 7 10.5 14t29.5 26q28 24 39 37q12 14 17 25q5 13 5 25
q0 25 -17.5 41.5t-47 16.5t-47 -15.5t-20.5 -44.5l26 -3q0 19 11 30.5t30 11.5q17 0 28 -10.5t11 -25.5t-12 -31q-11 -16 -46 -44q-22 -18 -33.5 -32t-16.5 -28q-3 -8 -3 -17h138v24h-102v0zM24 12q19 -16 46 -16q30 0 50 19t20 46q0 20 -10 33.5t-29 17.5q14 7 21.5 18
t7.5 24q0 15 -7.5 27.5t-22 20t-31.5 7.5q-25 0 -41.5 -14.5t-21.5 -39.5l26 -5q3 19 13 28.5t25 9.5t24.5 -9.5t9.5 -23.5q0 -18 -13.5 -26.5t-29.5 -8.5q-2 0 -4 1l-3 -23q11 3 18 3q18 0 29.5 -11.5t11.5 -29.5t-12.5 -30.5t-30.5 -12.5q-15 0 -26 10q-10 9 -15 31
l-25 -4q2 -26 20 -42v0z" />
    <glyph glyph-name="news" unicode="&#xea2a;" 
d="M889 -128h-754q-35 0 -60.5 25t-25.5 61v852q0 36 25.5 61t60.5 25h575l265 -269v-669q0 -36 -25.5 -61t-60.5 -25v0zM135 852q-17 0 -29 -12.5t-12 -29.5v-852q0 -17 12 -29.5t29 -12.5h754q17 0 29 12.5t12 29.5v651l-239 243h-556zM221 680h252v-44h-252v44zM221 566
h252v-44h-252v44zM221 453h252v-45h-252v45zM221 279h579v-45h-579v45zM221 132h579v-44h-579v44zM951 597h-181q-35 0 -60 25t-25 61v185h44v-185q0 -17 12 -29.5t29 -12.5h181v-44v0zM951 597z" />
    <glyph glyph-name="jiangpai" unicode="&#xea1b;" 
d="M518 869h273q6 0 11 -4q38 -38 48 -46q18 -15 29 -33q16 -24 13 -38t-9 -27q-6 -11 -14.5 -22.5t-20.5 -25t-18 -20.5q-17 -22 -53 -64q-9 -11 -26.5 -31t-25.5 -30q-6 -6 -12 -14t-14 -17t-12 -15q-15 -18 -18 -21q-1 -1 -4.5 -3t-4.5 -3q-4 -3 -12 -12q-1 -2 -3.5 -5.5
t-4.5 -5.5t-4.5 -2.5t-5.5 0.5t-7 3t-5 2q-63 23 -122 20q-41 -2 -80 -18q-5 -2 -7 0q-4 5 -14 13t-13 12q-3 3 -55 60q-4 5 -14.5 16t-15.5 17q-7 9 -24.5 28.5t-27 30t-27 29.5t-24.5 27q-26 29 -35 39q-4 5 -11 15t-10 13q-6 8 -7 18q-2 12 10 24q14 14 61 58
q18 17 35 31q2 1 8 1h273zM657 711h-8h-251q-18 0 -25 11l-4 3v-0.5v-0.5q70 -80 153 -173l1 1v1l1 1l1 1l1 1l1 1l1 1l1 1v1l1 1l1 1l1 1l1 1l1 1v1l1 1l1 1l1 1l1 1l1 1l1 1v1l1 1l1 1l1 1l1 1l1 1l1 1v1l1 1l1 1l1 1l1 1l1 1v1l1 1l1 1l1 1l1 1l1 1l1 1v1l1 1l1 1l1 1
l1 1l1 1l1 1v1l1 1l1 1l1 1l1 1l1 1v1l1 1l1 1l1 1l1 1l1 1l1 1v1l1 1l1 1l1 1l1 1l1 1v1l1 1l1 1l1 1l1 1l1 1l1 1v1l1 1l1 1l1 1l1 1l1 1l1 1v1l1 1l1 1l1 1l1 1l1 1v1l1 1l1 1l1 1l1 1l1 1l1 1v1l1 1l1 1l1 1l1 1l1 1l1 1v1l1 1l1 1l1 1l1 1l1 1v1l1 1l1 1l1 1l1 1l1 1
l1 1v1l1 1l1 1l1 1l1 1l1 1l1 1l1 1l1 1v1l1 1l1 1l1 1l1 1l1 1v1l1 1l1 1l1 1l1 1l1 1l1 1v1l1 1l1 1l1 1l1 1l1 1l1 1v1l1 1l1 1l1 1l1 1l1 1v1l1 1l1 1l1 1l1 1l1 1l1 1v1l1 1zM510 450q75 0 132 -31q44 -23 73 -55q8 -8 23 -29q8 -12 16 -25q3 -5 9 -21q9 -20 11 -27
q2 -5 5 -21q6 -38 7 -46q3 -23 -1 -35q-2 -4 -2 -13.5v-10.5q-1 -1 -3 -10l-0.5 -1l-0.5 -1q-4 -23 -4 -24q-1 -2 -2 -5t-2.5 -6l-2.5 -5q0 -2 -2 -7t-3.5 -8l-4 -8t-3.5 -6q0 -1 -2.5 -6.5t-4.5 -8.5q-22 -33 -37 -47q-5 -4 -13.5 -12.5l-13.5 -13.5q-2 -2 -22 -15
q-11 -7 -15 -9q-3 -2 -23 -12q-14 -6 -16 -7t-18 -5q-4 -1 -12.5 -3t-12.5 -3q-1 -1 -2.5 -1.5t-2.5 -0.5q-48 -1 -61 -2q-15 0 -28 2q-4 1 -8.5 2t-9.5 3t-8 2q-2 1 -9 2.5t-11 2.5l-15.5 6.5l-15.5 6.5q-8 4 -20 12q-19 13 -23 16q-26 23 -41 39q-11 12 -28 37q-3 4 -6 11
t-3 9q-1 2 -4 6.5t-4 6.5q-2 4 -5 14l-7 20l-0.5 0.5l-0.5 0.5q-4 19 -5 22q-2 11 -2 20q-2 38 -1 53q0 11 4 28q1 5 3.5 13.5t3.5 11.5q1 2 2.5 9t2.5 10q5 14 13 27q16 29 22 37q28 37 52 54q3 2 10 7.5t11 8.5q51 29 102 37q3 0 40 4zM261 190q1 1 2 1l1 4q5 47 25 85
q26 51 72 85q63 48 143 53q41 3 80 -8q74 -21 123 -83q31 -38 50 -94l2 -4h1v6q-21 58 -24 64q-21 46 -59 79q-29 25 -60 38q-56 24 -119 19q-35 -3 -65 -13q-82 -28 -130 -93q-43 -58 -42 -134v-5zM660 128q-52 -111 -160 -98q-111 14 -138 127q-1 -49 41.5 -92t106.5 -47
q60 -3 100.5 32t49.5 78z" />
    <glyph glyph-name="quanping" unicode="&#xeb24;" 
d="M637 477l198 198v-112q0 -7 4.5 -12.5t11.5 -5.5h12q17 1 17 16l1 166l-0.5 0.5l-0.5 0.5l1 8q0 8 -4 12q-5 5 -12 5h-8l-1 -1l-165 1q-7 0 -12 -5t-5 -12v-12q1 -8 6.5 -12.5t12.5 -4.5h109l-197 -197q-7 -7 -7 -16.5t6.5 -16.5t16.5 -7t16 7v0zM388 291l-199 -197
l1 111q0 8 -5 13t-12 5h-12q-17 -1 -17 -15l-1 -167l0.5 -0.5l0.5 -0.5l-1 -8q0 -8 4 -12q5 -5 12 -5h8h1h165q7 0 12.5 5t5.5 12v12q-1 8 -6.5 12.5t-13.5 4.5h-109l198 197q7 7 7 16.5t-7 16.5t-16.5 7t-15.5 -7v0zM881 41l-1 167q0 14 -17 15h-12q-6 0 -11 -5t-5 -13
l1 -111l-199 197q-6 7 -16 7t-16.5 -7t-6.5 -16.5t7 -16.5l197 -197h-109q-7 0 -12.5 -4.5t-6.5 -12.5v-12q0 -7 5 -12t12 -5l165 1l1 -1h8q7 0 12 5q4 4 4 12l-1 8v1h1v0v0zM223 707h108q8 0 13.5 4.5t6.5 12.5v12q0 7 -5 12t-12 5l-166 -1l-1 1h-8q-7 0 -12 -5
q-4 -4 -4 -12l1 -8l-0.5 -0.5l-0.5 -0.5v-167q1 -14 18 -15h12q7 0 12 5t5 13l-1 111l198 -197q7 -7 16.5 -7t16.5 7t7 16.5t-7 16.5zM223 707z" />
    <glyph glyph-name="appclient" unicode="&#xea40;" 
d="M528.5 89q-25.5 0 -43.5 -18t-18 -43.5t18 -44t43.5 -18.5t43.5 18.5t18 44t-18 43.5t-43.5 18zM790 896h-492q-44 0 -75 -31t-31 -75v-812q0 -44 31 -75t75 -31h492q44 0 75 31t31 75v812q0 44 -31 75t-75 31zM835 5q0 -30 -21 -50.5t-50 -20.5h-440q-30 0 -50.5 20.5
t-20.5 50.5v758q0 30 20.5 50.5t50.5 20.5h440q30 0 50.5 -20.5t20.5 -50.5v-758v0zM546 582q-102 2 -103.5 -101.5t101 -105.5t103.5 101.5t-101 105.5zM734 803h-380q-29 0 -49.5 -20.5t-20.5 -50.5v-541q0 -29 20.5 -50t49.5 -21h380q29 0 49.5 21t20.5 50v541
q0 30 -20.5 50.5t-49.5 20.5zM712 443h-21v0h-1q-4 -31 -18 -55l11 -12q9 -9 9 -22t-9 -22t-22 -8.5t-22 9.5l-12 12q-20 -10 -55 -14l0.5 -1.5t0.5 -2.5l-1 -21q0 -13 -9 -22t-21.5 -8.5t-21.5 10t-9 21.5v21q0 1 0.5 2l0.5 1q-30 5 -54 18l-13 -12q-9 -9 -21.5 -9
t-21.5 9.5t-9 22t9 21.5l13 13q-11 20 -15 55h-2h-2h-21q-12 0 -21 9.5t-9 22.5t9.5 22t21.5 8h21h0.5h1.5q4 31 17 55l-11 12q-9 9 -9 22t9 22t22 9t22 -10l10 -11q25 14 56 17v21q1 13 10 22t21.5 8.5t21.5 -9.5t9 -22v-21q31 -4 56 -18l10 10q9 9 22 8.5t21.5 -10
t8.5 -22t-9 -21.5l-10 -10q10 -21 14 -58h1.5h0.5h20q13 0 22 -9.5t9 -22.5t-9.5 -21.5t-21.5 -8.5z" />
    <glyph glyph-name="wenzi01" unicode="&#xe6bf;" horiz-adv-x="1025" 
d="M698 571h-371q-8 0 -8 -8v-124q0 -3 2.5 -5.5t5.5 -2.5l17 1q6 0 7 7q4 28 23 49t35 25q8 2 22 2q13 0 30 -2q-1 -281 -1 -294q0 -11 -18 -18h-32q-7 0 -7 -8l-1 -23q0 -3 2.5 -5.5t5.5 -2.5h205q8 0 8 8v22q0 8 -8 8h-37q-11 1 -20 17l1 299q7 1 15 1q19 0 38 -4
q17 -3 35 -29t27 -49q2 -5 8 -5h16q8 0 8 8v125q0 8 -8 8zM806 775h-587q-40 0 -68.5 -28.5t-28.5 -69.5v-601q5 -35 33 -59t64 -24h587q40 0 68.5 29t28.5 69v586q0 41 -28.5 69.5t-68.5 28.5zM806 140q0 -20 -14.5 -34.5t-34.5 -14.5h-489q-20 0 -34.5 14.5t-14.5 34.5v0
v489q0 20 14.5 34t34.5 14h489q20 0 34.5 -14t14.5 -34v0v-489z" />
    <glyph glyph-name="neirong" unicode="&#xe994;" horiz-adv-x="1026" 
d="M982 549l-169 -170q-28 -28 -68 -28t-68 28l-170 170q-28 28 -28 68t28 68l170 169q28 29 68 29t68 -29l169 -169q29 -28 29 -68t-29 -68v0zM932 668l-136 136q-21 21 -51 21t-51 -21l-136 -136q-21 -21 -21 -51t21 -51l136 -136q21 -21 51 -21t51 21l136 136
q21 21 21 51t-21 51v0zM337 -127h-240q-40 0 -68 28t-28 68v240q0 40 28 68t68 28h240q40 0 68 -28t28 -68v-240q0 -40 -28 -68t-68 -28v0zM337 401h-240q-40 0 -68 28t-28 68v240q0 40 28 68t68 28h240q40 0 68 -28t28 -68v-240q0 -40 -28 -68t-68 -28v0zM625 305h240
q40 0 68 -28t28 -68v-240q0 -40 -28 -68t-68 -28h-240q-40 0 -68 28t-28 68v240q0 40 28 68t68 28v0zM625 305z" />
    <glyph glyph-name="paixu1" unicode="&#xea0e;" 
d="M404 33q-10 0 -17 7t-7 17v596l-185 -185q-7 -7 -17 -7t-17 7t-7 17t7 17l226 226q11 11 26 5t15 -22v-654q0 -10 -7 -17t-17 -7zM620 33q-4 0 -9 2q-15 6 -15 22v654q0 10 7 17t17 7t17 -7t7 -17v-596l185 185q7 7 17 7t17 -7t7 -17t-7 -17l-226 -226q-7 -7 -17 -7z" />
    <glyph glyph-name="newsComment" unicode="&#xea29;" 
d="M862 42v-181l-178 110q-39 -7 -76 -7q-91 0 -171 32.5t-138 88.5q29 -1 38 -1q24 0 53 2q95 -66 218 -66q40 0 82 9l62 -41v-1l47 -31v113q73 42 116 108.5t43 145.5q0 99 -69 179q5 33 5 59q0 4 -2 28q61 -51 95 -118.5t34 -143.5q0 -86 -42.5 -160.5t-116.5 -124.5v0z
M416 155q-37 0 -76 7l-178 -110v181q-74 50 -116.5 124.5t-42.5 160.5q0 98 55 181.5t150.5 132t208 48.5t208 -48.5t150.5 -132t55 -182t-55 -182t-150.5 -132t-208.5 -48.5zM416.5 816q-95.5 0 -176 -40.5t-127.5 -110t-47 -151.5q0 -79 43 -145.5t116 -108.5v-112l47 30
v1l62 41q42 -9 82 -9q96 0 176.5 40.5t127.5 110t47 152t-47 152t-127.5 110t-176 40.5zM623.5 466q-19.5 0 -33.5 14t-14 33.5t14 33.5t33.5 14t33.5 -14t14 -33.5t-14 -33.5t-33.5 -14zM432.5 466q-19.5 0 -33.5 14t-14 33.5t14 33.5t33.5 14t33.5 -14t14 -33.5t-14 -33.5
t-33.5 -14zM241.5 466q-19.5 0 -33.5 14t-14 33.5t14 33.5t33.5 14t33.5 -14t14 -33.5t-14 -33.5t-33.5 -14z" />
    <glyph glyph-name="bumen" unicode="&#xea34;" 
d="M912 320h-16v128h-352v64h95q54 0 91.5 38t37.5 91v126q0 53 -38 91t-91 38h-254q-54 0 -91.5 -38t-37.5 -91v-126q0 -53 38 -91t91 -38h95v-64h-352v-128h-16q-46 0 -79 -33t-33 -79v-224q0 -46 33 -79t79 -33h96q46 0 79 33t33 79v224q0 46 -33 79t-79 33h-16v64h288
v-64q-40 -2 -68 -31.5t-28 -69.5v-245q0 -42 29.5 -72t71.5 -30h54q42 0 71.5 30t29.5 72v245q0 40 -28 69.5t-68 31.5v64h288v-64h-16q-46 0 -79 -33t-33 -79v-224q0 -46 33 -79t79 -33h96q46 0 79 33t33 79v224q0 46 -33 79t-79 33zM320 641v126q0 27 19 46t46 19h254
q27 0 46 -19t19 -46v-126q0 -27 -19 -46t-46 -19h-254q-27 0 -46 19t-19 46zM256 208v-224q0 -20 -14 -34t-34 -14h-96q-20 0 -34 14t-14 34v224q0 20 14 34t34 14h96q20 0 34 -14t14 -34zM576 219v-246q0 -15 -11 -26t-26 -11h-54q-15 0 -26 11t-11 26v246q0 15 11 26
t26 11h54q15 0 26 -11t11 -26zM960 -16q0 -20 -14 -34t-34 -14h-96q-20 0 -34 14t-14 34v224q0 20 14 34t34 14h96q20 0 34 -14t14 -34v-224z" />
    <glyph glyph-name="pinpai" unicode="&#xea02;" horiz-adv-x="1027" 
d="M824 39h-620q-14 0 -24.5 9t-12.5 23l-90 510q-5 26 18 39t43 -4l190 -161l154 239q11 16 32 16t32 -16l154 -239l189 161q21 18 44 4.5t18 -39.5l-90 -511q-2 -13 -12.5 -22t-24.5 -9v0zM235 115h557l67 375l-143 -120q-12 -11 -29 -9t-27 17l-146 226l-146 -226
q-10 -15 -27 -17q-17 -3 -30 9l-142 120l66 -375v0zM235 115zM824 -83h-620q-16 0 -27 11t-11 27t11 27t27 11h620q16 0 27 -11t11 -27t-11 -27t-27 -11v0zM824 -83zM63 693zM3 693q0 25 17.5 42.5t43 17.5t43 -17.5t17.5 -42.5t-17.5 -43t-43 -18t-43 18t-17.5 43zM516 789
zM455 789q0 25 18 43t43 18t42.5 -18t17.5 -43t-17.5 -43t-42.5 -18t-43 18t-18 43zM965 696zM904 696q0 25 18 43t43 18t42.5 -18t17.5 -43t-17.5 -42.5t-42.5 -17.5t-43 17.5t-18 42.5z" />
    <glyph glyph-name="newsChannel" unicode="&#xea28;" 
d="M678 -113h110v110h-110v-110zM457 -113h110v110h-110v-110zM899 329h110v110h-110v-110zM899 -113q45 0 77.5 32.5t32.5 77.5h-110v-110zM236 771h110v110h-110v-110zM899 108h110v110h-110v-110zM899 881h-442v-331h552v221q0 46 -32.5 78t-77.5 32zM125 -113v110h-110
q0 -45 32.5 -77.5t77.5 -32.5zM15 108h110v110h-110v-110zM236 -113h110v110h-110v-110zM15 771h110v110q-46 0 -78 -32t-32 -78zM15 329h110v110h-110v-110zM15 550h110v110h-110v-110z" />
    <glyph glyph-name="yonghuxinxixian" unicode="&#xea07;" 
d="M795 16q-12 66 -37 118.5t-58.5 86.5t-67 55.5t-71.5 35.5q57 35 90.5 93t33.5 127q0 107 -75.5 181.5t-182 74.5t-182.5 -75.5t-76 -182.5q0 -68 33.5 -126.5t89.5 -91.5q-60 -22 -105.5 -61t-68.5 -76.5t-37 -77.5t-17 -59t-3 -25q-2 -14 6.5 -24t21.5 -10
q13 -1 23.5 7.5t11.5 21.5q0 5 2 17.5t9.5 37t19.5 50t35 53.5t53.5 50.5t77.5 38.5t103 19h1q11 0 22 -0.5t39.5 -5.5t54 -14t58 -29t57.5 -47.5t46.5 -72.5t31.5 -100q5 -25 32 -25h6q12 2 19 12.5t4 23.5zM232 532q0 81 57 137t137.5 56t138 -57t57.5 -138t-57.5 -137
t-138 -56t-137.5 57t-57 138zM963 635h-224q-13 0 -22.5 9.5t-9.5 22.5t9.5 22.5t22.5 9.5h224q13 0 22.5 -9.5t9.5 -22.5t-9.5 -22.5t-22.5 -9.5zM914 504h-175q-13 0 -22.5 9.5t-9.5 22.5t9.5 22.5t22.5 9.5h173q13 0 22.5 -9.5t9.5 -22.5t-8.5 -22.5t-21.5 -9.5zM851 374
h-112q-13 0 -22.5 9.5t-9.5 23t9.5 22.5t22.5 9h112q13 0 22.5 -9t9.5 -22.5t-9.5 -23t-22.5 -9.5z" />
    <glyph glyph-name="panorama_app" unicode="&#xea1a;" 
d="M503 481v-85h24q50 0 50 43q0 42 -49 42h-25zM832 592v239q0 26 -18.5 45t-45.5 19h-509q-27 0 -45.5 -19t-18.5 -45v-239h-119v-398h119v-255q0 -26 18.5 -45t45.5 -19h509q27 0 45.5 19t18.5 45v255h118v398h-118zM768 815v-223h-509v223h509zM636 441
q0 -41 -29.5 -65.5t-74.5 -23.5h-29v-92h-57v265h91q99 0 99 -84zM228 321l-20 -61h-61l97 265h66l95 -265h-61l-20 61h-96zM513.5 -93q-13.5 0 -22.5 9.5t-9 22.5t9 22.5t22.5 9.5t22.5 -9.5t9 -22.5t-9 -22.5t-22.5 -9.5zM768 3h-509v191h509v-191v0zM829.5 375.5
q-29.5 -24.5 -74.5 -23.5h-29v-92h-57v265h91q99 0 99 -84q0 -41 -29.5 -65.5zM751 481h-25v-85h24q50 0 50 43q0 42 -49 42zM276 479h-1q-1 -12 -5 -22l-30 -93h71l-31 92q-2 9 -4 23z" />
    <glyph glyph-name="panorama_today" unicode="&#xea12;" 
d="M511 896q-104 0 -198.5 -40.5t-163 -109t-109 -163t-40.5 -198.5t40.5 -199t109 -163.5t163 -109t198.5 -40.5t199 40.5t163.5 109t109 163.5t40.5 199t-40.5 198.5t-109 163t-163.5 109t-199 40.5zM511 -82q-95 0 -181 37t-148.5 99.5t-99.5 149t-37 181.5t37 181
t99.5 148.5t148.5 99.5t181 37t181.5 -37t149 -99.5t99.5 -148.5t37 -181t-37 -181.5t-99.5 -149t-149 -99.5t-181.5 -37zM255 323q49 34 68 53q32 36 32 78q0 44 -30 71q-30 28 -78 28q-53 0 -85 -36q-31 -33 -32 -89h51q1 41 17 61q16 21 47 21q30 0 45 -13.5t15 -41.5
q0 -29 -22 -54q-13 -14 -47 -38q-58 -40 -75 -60q-32 -37 -32 -86h227v44h-165q11 27 64 62zM599 546h-47l-162 -210v-48h161v-71h48v71h49v40h-49v218zM551 328h-120l118 154h2v-154zM873 436q-22 26 -65 26q-23 0 -40 -10q-20 -9 -34 -30v131h-49v-336h49v133q0 32 16 52
q15 20 40 20q28 0 42 -18q13 -17 13 -48v-139h49v148q0 47 -21 71z" />
    <glyph glyph-name="tuisong" unicode="&#xea52;" 
d="M1018 769q-10 14 -28 14q-4 0 -9 -1l-956 -262q-19 -6 -24 -25t9 -33l132 -125q10 -9 24 -9t24 10q10 11 9.5 25t-10.5 23l-88 84l808 222l-414 -602l-101 108q-9 9 -23 9q-15 0 -25 -10q-9 -10 -9 -24.5t10 -23.5l128 -135q11 -10 24 -10h4q15 1 24 14l491 712
q13 20 0 39zM334 139q-13 0 -23 -10l-28 -27l6 152l458 297q12 8 15 21.5t-5 25.5q-10 16 -28 16q-10 0 -19 -6l-473 -307q-14 -9 -15 -27l-10 -254q-1 -23 20 -32q7 -3 14 -3q14 0 23 9l89 87q10 10 10 24t-9.5 24t-24.5 10z" />
    <glyph glyph-name="yaochi" unicode="&#xea09;" 
d="M149 -80h-36q-29 1 -46.5 18t-18.5 45v76q0 26 28 54q306 305 316 315q24 24 15 57q-14 55 -9.5 107t30 98.5t61.5 81.5t86.5 55.5t105.5 20.5q169 1 253 -139q39 -67 41.5 -140.5t-26.5 -134.5t-87.5 -106t-134.5 -57q-60 -10 -120 9q-24 8 -45 -10q-55 -48 -50 -113
q2 -29 -13.5 -45.5t-45.5 -18.5q-17 -1 -38 0q-17 1 -17 -16q1 -21 0 -39q-1 -28 -18 -44t-45 -15q-70 4 -107 -43q-11 -14 -38 -16h-41v0v0zM291 39q8 -1 14.5 0.5t11 0t8 0t6 1t4 2t2 3t1 5t0.5 7v9.5v12q0 42 16.5 58t58.5 17q29 0 34 5t5 34q0 52 30 82q4 3 30.5 29
t40.5 41q15 16 35 6q61 -31 132 -20q86 13 140.5 77t54.5 152q0 132 -117 199q-112 63 -226 -1q-79 -45 -105 -129t13 -169q9 -21 -7 -36q-60 -60 -350 -349q-14 -14 -14 -25v-55q0 -13 9 -14q18 0 34.5 -1t33.5 5t29 21q32 40 76 33v0zM680 623q0 33 22.5 55.5t55.5 22.5
q31 0 54 -23.5t23 -54.5q-1 -30 -25 -54t-54 -23q-32 0 -54 23t-22 54z" />
    <glyph glyph-name="gengxinupdated" unicode="&#xea21;" 
d="M811 734q-11 1 -18 10q-30 41 -75 64t-96 23q-6 0 -12 -1q-10 0 -17 6q-64 47 -143 47q-70 0 -128 -37t-88 -99q-6 -12 -19 -14q-78 -11 -130.5 -71t-52.5 -140q0 -63 34.5 -115.5t91.5 -78.5v5v5q0 50 6 84q-48 39 -48 100q0 54 37.5 91.5t91.5 37.5h10q16 -2 28.5 7
t15.5 24q13 52 55 84.5t96 32.5q63 0 108 -44q16 -15 38 -11q13 3 26 3q37 0 68.5 -19.5t47.5 -53.5q13 -26 42 -23h13q53 0 91 -37.5t38 -91.5q0 -61 -49 -100q7 -34 7 -84v-5v-5q56 26 91 78.5t35 115.5q0 83 -56.5 144t-138.5 68zM519 574q-42 -39 -84 -61.5t-72 -28
t-58 -8t-46.5 -5t-32.5 -14t-20.5 -40t-6.5 -79.5q0 -70 14 -131.5t36.5 -105.5t52.5 -81t60 -60.5t61.5 -41t54.5 -25.5t41 -11q18 3 41 11t54.5 25.5t61.5 41t60 60.5t52 81t36 105.5t14 131.5q0 51 -6.5 79.5t-20.5 40t-32 14t-46 5t-58.5 8t-72 28t-83.5 61.5zM695 261
l-184 -184q-14 -14 -35 -14t-35 14l-98 99q-15 14 -15 35t14.5 35.5t35.5 14.5t35 -15l63 -63l149 149q14 15 35 15t35.5 -15t14.5 -35.5t-15 -35.5z" />
    <glyph glyph-name="panorama_version" unicode="&#xea14;" horiz-adv-x="1147" 
d="M1056 -128h-511q-37 0 -63.5 24.5t-26.5 58.5v858q0 34 26.5 58.5t63.5 24.5h511q37 0 63.5 -24.5t26.5 -58.5v-858q0 -34 -26.5 -58.5t-63.5 -24.5zM545 825q-7 0 -12.5 -4t-5.5 -8v-858q0 -4 5.5 -8t12.5 -4h511q8 0 13.5 4t5.5 8v858q0 4 -5.5 8t-13.5 4h-511zM423 76
h-137q-5 0 -8.5 3.5t-3.5 8.5v592q0 5 3.5 8.5t8.5 3.5h137v71h-137q-35 0 -59.5 -24.5t-24.5 -58.5v-592q0 -34 24.5 -58.5t59.5 -24.5h137v71zM167 225h-84q-5 0 -8.5 3.5t-3.5 8.5v294q0 5 3.5 8.5t8.5 3.5h84v72h-84q-34 0 -58.5 -24.5t-24.5 -59.5v-294
q0 -35 24.5 -59.5t58.5 -24.5h84v72z" />
    <glyph glyph-name="wochuangjiande" unicode="&#xea38;" 
d="M657 -14q-8 0 -14 6q-10 9 -5 22l24 65q4 11 15 13t19 -5l39 -39q8 -7 6 -18t-13 -15l-63 -27q-4 -2 -8 -2v0zM720 13q-8 0 -14 6t-6 14.5t5 14.5l150 159q6 6 14 6t14.5 -5.5t6.5 -14t-5 -14.5l-150 -159q-6 -7 -15 -7v0zM681 52q-7 0 -13 5t-6.5 13.5t4.5 15.5l143 159
q6 6 14.5 6.5t15 -5t7 -14t-5.5 -14.5l-143 -160q-6 -6 -16 -6zM867 170q-8 0 -14 5l-43 42q-6 6 -6 14.5t6 14.5l20 21q8 7 21.5 8.5t27.5 -6.5q14 -10 26 -23q2 -2 3 -5q12 -24 -3 -40l-23 -25q-6 -6 -15 -7v1zM854 232l13 -13q1 2 3 4q-7 7 -14 12zM764 -108
q-101 0 -172.5 71.5t-71.5 172.5t71.5 172.5t172.5 71.5t172.5 -71.5t71.5 -172.5t-71.5 -172.5t-172.5 -71.5zM764 339q-84 0 -143.5 -59.5t-59.5 -143.5t59.5 -143.5t143.5 -59.5t143.5 59.5t59.5 143.5t-59.5 143.5t-143.5 59.5zM432 353q-109 0 -186 77t-77 185.5
t77 185.5t186 77t186 -77t77 -185.5t-77 -185.5t-186 -77zM432 838q-92 0 -157 -65.5t-65 -157t65 -157t157 -65.5t157 65.5t65 157t-65 157t-157 65.5zM552 -67h-400q-88 5 -91 105q-1 9 3 25t8 22q51 105 148.5 165.5t213.5 60.5q44 0 87 -9q13 18 29 35q-58 15 -116 15
q-128 0 -235.5 -67t-163.5 -182q-5 -10 -10.5 -31t-4.5 -35q2 -66 36 -103.5t95 -41.5h449q-26 17 -48 41z" />
    <glyph glyph-name="ditu-copy-copy" unicode="&#xe997;" 
d="M889 304q-5 14 -29 16l-164 18q98 155 98 240q0 87 -42.5 160t-116.5 115.5t-161 42.5t-161 -42.5t-117 -115.5t-43 -160q0 -89 110 -257l-234 26q-13 1 -21.5 -3.5t-7.5 -12.5l63 -386q3 -16 26 -19l296 -43q3 -1 5.5 -1t5.5 1l283 33l313 -43q3 -1 6 -1q12 0 19 4
q9 6 6 16zM473.5 764q66.5 0 113.5 -46.5t47 -112.5t-47 -112.5t-113.5 -46.5t-113 46.5t-46.5 112.5t46.5 112.5t113 46.5zM585 158l-22 -3q11 14 17 22zM56 311l219 -25l33 -156l-226 29zM117 -41l-28 164l227 -30l36 -167zM349 201q26 -34 52 -67l-36 -4zM410 -75
l-37 168l57 7l44 -51q22 25 55 64l66 8l44 -168zM622 232q27 36 53 75l160 -18l51 -161l-243 30zM699 -48l-46 169l245 -31l55 -173z" />
    <glyph glyph-name="jingxuan-copy" unicode="&#xea05;" 
d="M825 256q108 110 108 256q0 104 -56.5 192.5t-153.5 140t-211 51.5t-211 -51.5t-153.5 -140t-56.5 -192.5q0 -146 108 -256l-142 -225l184 -25l115 -134q87 137 156 248l156 -248l115 134l184 25l-8 13q-8 13 -23 36t-31.5 50.5t-39 62t-40.5 63.5zM339 -32l-55 108
l-126 -8q43 71 89 146q84 -63 193 -80q-22 -36 -47 -77.5t-39.5 -65zM162 512q0 87 46.5 160.5t127.5 116.5t176 43t176 -43t127.5 -116.5t46.5 -160.5t-46.5 -160.5t-127.5 -116.5t-176 -43t-176 43t-127.5 116.5t-46.5 160.5zM740 76l-55 -108q-52 85 -101 166
q109 17 193 80q20 -33 42.5 -69.5t34.5 -56.5l12 -20zM512 736q-102 0 -173.5 -65.5t-71.5 -158.5t71.5 -158.5t173.5 -65.5t173.5 65.5t71.5 158.5t-71.5 158.5t-173.5 65.5zM512 352q-73 0 -124 47t-51 113t51 113t124 47t124 -47t51 -113t-51 -113t-124 -47z" />
    <glyph glyph-name="yichu" unicode="&#xea0a;" 
d="M638 832h-252v-53h252v53zM957 694h-894v-53h894v53zM830 -10h-636v-53h636v53zM247 -63v586h-53v-586h53zM439 -63v586h-53v-586h53zM638 -63v586h-53v-586h53zM830 -63v586h-53v-586h53z" />
    <glyph glyph-name="cf-c85" unicode="&#xeb20;" 
d="M788 762h-560q-39 0 -66 -27t-27 -66v-559q0 -39 27.5 -66t65.5 -27h560q38 0 65 27.5t27 65.5v559q1 39 -26 66t-66 27zM827 151q0 -33 -23.5 -57t-56.5 -24h-478q-33 0 -56.5 23.5t-23.5 57.5v478q0 33 23 56.5t57 23.5h478q33 0 56.5 -23.5t23.5 -56.5v-478zM315 219
q-12 23 -0.5 48.5t39.5 40.5q24 14 53 11v194q0 20 18 24l195 48q12 3 21 -4q10 -8 10 -20v-19l-129 -31h-2l-66 -17v-225v-2q0 -18 -12 -35.5t-33 -28.5q-27 -15 -54.5 -10t-39.5 26v0v0zM601 480l49 12v-174q0 -18 -12.5 -36t-32.5 -29q-28 -15 -56 -10t-40 27t-0.5 48
t40.5 41q23 13 52 11v110zM601 480z" />
    <glyph glyph-name="panorama_newboot" unicode="&#xea13;" 
d="M353 886q-84 0 -155 -44t-112.5 -119t-41.5 -164q0 -128 83 -221.5t203 -103.5v-337h44v337q120 10 203 103.5t83 221.5q1 89 -40 164t-112 119t-155 44zM317 757v0q-8 0 -17.5 -0.5t-32 -8t-40.5 -21.5t-37 -44.5t-29 -73.5q-3 -11 -14 -11h-3q-6 1 -9.5 6.5t-2.5 11.5
q7 28 16.5 52.5t21.5 41t25.5 29.5t27 21t26.5 14t24.5 8.5t20 3.5t14.5 1.5l6 0.5q13 2 16 -13q0 -18 -13 -18zM737 682q-26 0 -50 -5q33 -67 33 -143q0 -91 -43.5 -166.5t-116.5 -118.5q64 -72 160 -79v-193h35v193q95 7 160 80.5t65 175.5q0 106 -71 181t-172 75z
M779 194h-3q-12 0 -15 11q-1 7 2.5 12t9.5 6q18 4 34 10.5t27 13t20 13.5t14.5 13.5t9 11.5t5.5 8.5l2 3.5q6 14 20 8q13 -5 8 -19q-1 0 -3 -4t-6 -10t-10.5 -14t-17 -17t-24 -17.5t-32.5 -16.5t-41 -13z" />
    <glyph glyph-name="panorama" unicode="&#xea15;" 
d="M910 82h-100v547q0 20 -14.5 35t-35 15t-35 -15t-14.5 -35v-547h-100v447q0 21 -14.5 35.5t-35 14.5t-35 -14.5t-14.5 -35.5v-447h-100v348q0 20 -14.5 35t-35 15t-35 -15t-14.5 -35v-348h-149v646q0 21 -15 35.5t-35.5 14.5t-35 -14.5t-14.5 -35.5v-696
q0 -21 14.5 -35.5t35.5 -14.5h796q21 0 35.5 14.5t14.5 35t-14.5 35.5t-35.5 15z" />
    <glyph glyph-name="panorama_device" unicode="&#xea17;" 
d="M451 808h122q6 0 6 6t-6 6h-122q-6 0 -6 -6t6 -6zM234 812q0 35 24.5 59.5t59.5 24.5h388q35 0 59.5 -24.5t24.5 -59.5v-856q0 -35 -24.5 -59.5t-59.5 -24.5h-388q-35 0 -59.5 24.5t-24.5 59.5v856zM521 -105q24 0 41 17.5t17 41.5t-17 41t-41 17t-41.5 -17t-17.5 -41
t17.5 -41.5t41.5 -17.5zM298 48h433v690h-433v-690z" />
    <glyph glyph-name="lunbotuzujian" unicode="&#xea39;" horiz-adv-x="1138" 
d="M114 612h-58q-23 0 -39.5 -17t-16.5 -40v-342q0 -23 16.5 -40t39.5 -17h58v456zM1024 612h57q24 0 40.5 -17t16.5 -40v-342q0 -23 -17 -40t-40 -17h-57v456zM910 782h-682q-24 0 -40.5 -16.5t-16.5 -40.5v-682q0 -24 16.5 -40.5t40.5 -16.5h682q24 0 40.5 16.5t16.5 40.5
v682q0 24 -16.5 40.5t-40.5 16.5zM369.5 612q35.5 0 60.5 -25t25 -60.5t-25 -60.5t-60.5 -25t-60.5 25t-25 60.5t25 60.5t60.5 25zM228 100q1 9 5 25t17 56t28 70.5t39 56t50 25.5t44.5 -8t29.5 -20t20.5 -23.5t24 -19.5t33.5 -8t37 25t34 61t32.5 72t39.5 61t49 25
q27 0 57 -41t54 -99.5t44.5 -117t32.5 -99.5l11 -41h-682z" />
    <glyph glyph-name="order" unicode="&#xea0c;" 
d="M512 767l221 -221l85 1l-306 306l-305 -306h85zM512 1l-220 220h-85l305 -306l306 306h-86zM1 410h1023v-57h-1023v57v0z" />
    <glyph glyph-name="sort" unicode="&#xea10;" 
d="M512 -128q-139 0 -257 68.5t-186.5 186.5t-68.5 257t68.5 257t186.5 186.5t257 68.5t257 -68.5t186.5 -186.5t68.5 -257t-68.5 -257t-186.5 -186.5t-257 -68.5zM512 845q-94 0 -179 -36.5t-147 -98.5t-98.5 -147t-36.5 -179t36.5 -179t98.5 -147t147 -98.5t179 -36.5
t179 36.5t147 98.5t98.5 147t36.5 179t-36.5 179t-98.5 147t-147 98.5t-179 36.5zM706 461l-92 102v-435h-51v512h51l128 -143zM280 273l36 36l94 -104v435h51v-512h-51z" />
    <glyph glyph-name="listul" unicode="&#xeb10;" horiz-adv-x="1025" 
d="M286 158q0 -35 -24.5 -60t-60 -25t-60.5 25t-25 60t25 60t60.5 25t60 -25t24.5 -60zM286 384q0 -35 -24.5 -60t-60 -25t-60.5 25t-25 60t25 60t60.5 25t60 -25t24.5 -60zM908 200v-84q0 -6 -4.5 -10.5t-10.5 -4.5h-536q-6 0 -10 4.5t-4 10.5v84q0 6 4 10t10 4h536
q6 0 10.5 -4t4.5 -10zM286 610q0 -35 -24.5 -60t-60 -25t-60.5 25t-25 60t25 60t60.5 25t60 -25t24.5 -60zM908 426v-84q0 -6 -4.5 -10.5t-10.5 -4.5h-536q-6 0 -10 4.5t-4 10.5v84q0 6 4 10.5t10 4.5h536q6 0 10.5 -4.5t4.5 -10.5zM908 652v-84q0 -6 -4.5 -10.5t-10.5 -4.5
h-536q-6 0 -10 4.5t-4 10.5v84q0 6 4 10.5t10 4.5h536q6 0 10.5 -4.5t4.5 -10.5z" />
    <glyph glyph-name="anquanzhongxin" unicode="&#xeb23;" 
d="M470 215l-165 139l37 40l119 -99l216 245l43 -37zM210 328q0 -52 35 -111.5t84 -103.5t101 -74t85.5 -30t84 30t97.5 74t81 103.5t34 111.5v307q-76 9 -154 40q-114 45 -143 63q-29 -18 -142 -63q-76 -30 -164 -40v-307h1zM164 322v362l34 1q7 0 23.5 1.5t57.5 10
t77 22.5q36 15 70 33t48.5 27.5t16.5 11.5l21 15l21 -15l6.5 -4.5t18.5 -11.5t27.5 -16t37.5 -20t45 -20q36 -14 77 -22.5t57.5 -10t23.5 -1.5l34 -1v-362q0 -62 -37 -129.5t-91 -117t-114 -81.5t-106 -32q-45 0 -105.5 32.5t-114.5 82t-91 116.5t-37 129z" />
    <glyph glyph-name="zhanghuyuquanxian" unicode="&#xea32;" 
d="M80 386.5q0 88.5 34.5 169.5t93 139t139 92.5t169 34.5t169 -34.5t139 -92.5t93 -139t34.5 -169.5t-34.5 -169t-93 -139t-139 -93t-169 -34.5t-169 34.5t-139 93t-93 139t-34.5 169zM515.5 878q-99.5 0 -190.5 -39t-157 -105t-105 -156.5t-39 -190.5t39 -191t105 -156.5
t157 -104.5t190.5 -39t190.5 39t157 104.5t105 156.5t39 191t-39 190.5t-105 156.5t-157 105t-190.5 39zM693 170q-25 -25 -62 -25t-62 25q-26 26 -26 62.5t25.5 62.5t62.5 26t62.5 -26t25.5 -62.5t-26 -62.5zM551 352l-144 143l58 59q9 8 9 19.5t-8.5 19.5t-20 8t-19.5 -8
l-58 -58l-29 29l58 58q8 8 8 19.5t-8 20t-19.5 8.5t-19.5 -8l-98 -98l252 -252q-25 -36 -25 -80q0 -59 42 -101.5t102 -42.5t102 42.5t42 102t-42 101.5q-36 35 -88.5 40t-93.5 -22z" />
    <glyph glyph-name="lianjie" unicode="&#xeb21;" 
d="M337 248l310 310q7 8 20 8t20 -8v0q8 -7 8 -20t-8 -20l-310 -310q-7 -8 -19 -8t-21 8v0q-8 9 -8 21t8 19v0zM559 586l98 98q35 33 86.5 38.5t84.5 -25.5l15 -15q32 -35 27 -87t-39 -85l-99 -98q-26 -26 -65 -33t-73 8l-33 -35q42 -29 94 -23.5t88 43.5l128 126
q44 43 44 104t-44 102l-18 20q-43 44 -104 44t-102 -44l-129 -128q-33 -31 -40.5 -78t10.5 -86l35 35q-7 30 3 63t33 56v0zM465 183l-98 -101q-33 -34 -84.5 -38.5t-86.5 28.5l-15 15q-31 33 -26 84.5t38 84.5l99 101q26 26 66 33t72 -8l35 33q-43 28 -94.5 23t-89.5 -41
l-128 -129q-44 -43 -44 -104t44 -102l20 -20q42 -42 102.5 -42t104.5 42l126 128q33 34 41 79.5t-11 84.5l-35 -35q7 -31 -2 -62.5t-34 -53.5v0z" />
    <glyph glyph-name="panorama_action" unicode="&#xea11;" 
d="M212 60q-2 26 -19.5 54.5t-40.5 42.5l-115 66q-23 14 -21.5 30.5t25.5 26.5l123 50q24 10 46 36t27 52l28 129q6 26 22 30t34 -16l85 -101q17 -20 48.5 -33t57.5 -10l132 13q26 3 35 -11t-5 -37l-70 -112q-14 -23 -16 -56.5t8 -58.5l54 -120q10 -25 -0.5 -38t-36.5 -6
l-129 31q-25 6 -57.5 -2t-52.5 -26l-99 -87q-20 -18 -35.5 -12t-17.5 33zM688 513q-2 26 -19.5 54.5t-40.5 42.5l-30 17q-23 13 -22 30t26 27l32 13q25 10 46.5 35.5t26.5 52.5l8 33q5 26 21.5 30t33.5 -16l22 -26q18 -21 48.5 -33.5t57.5 -9.5l34 3q27 3 36 -11t-5 -37
l-18 -29q-15 -23 -17 -56.5t9 -57.5l13 -32q11 -24 0.5 -37t-36.5 -7l-34 9q-26 6 -58 -2t-53 -26l-25 -23q-20 -18 -35.5 -11.5t-17.5 33.5z" />
    <glyph glyph-name="yidianhaoshenhe" unicode="&#xea31;" 
d="M574 -127h-408q-39 0 -65.5 26t-26.5 66v822q0 41 26 67t66 26h692q39 0 65.5 -26.5t26.5 -66.5v-545q0 -9 -8 -17t-17.5 -8t-17.5 8t-8 17v545q0 14 -12 26t-26 12h-695q-14 0 -26 -12t-12 -26v-828q0 -15 12 -27t26 -12h402q9 0 17 -8t8 -17q0 -22 -19 -22v0v0z
M593 134h-328q-10 0 -17.5 8t-7.5 17.5t7.5 17.5t17.5 8h328q10 0 18 -8t8 -18q-1 -1 -5 -7.5t-6 -9t-6 -5.5t-9 -3v0v0zM756 373h-497q-10 0 -18 8t-8 17.5t8 17.5t18 8h500q10 0 17.5 -8t7.5 -18q0 -9 -9 -17t-19 -8v0v0zM762 596h-497q-10 0 -17.5 8t-7.5 17.5t7.5 17.5
t17.5 8h500q10 0 18 -8t8 -18q0 -9 -8.5 -17t-20.5 -8v0v0zM941 118q-10 9 -22 9t-17 -9l-165 -179l-67 67q-10 10 -22 10t-17 -10q-15 -30 0 -38l93 -86q9 -10 21 -10t17 10l185 204q0 25 -6 32v0v0zM941 115z" />
    <glyph glyph-name="duanluo1" unicode="&#xeaa2;" 
d="M713 641h17q72 1 77 1q25 2 38.5 18.5t12.5 42.5q0 23 -16 37.5t-40 14.5h-417h-15q-80 -9 -136 -66t-66.5 -141t35 -157.5t123.5 -96.5q11 -3 24.5 -5.5t31.5 -5t27 -3.5v-265h109v625h87v-625h108v626zM409 399q-72 -8 -112 49q-44 64 -7 131q37 68 119 62v-242z" />
    <glyph glyph-name="jiaosequanxian0101" unicode="&#xea1f;" 
d="M947 70q-37 68 -103 121q-84 67 -197 94q34 21 63 52q80 88 80 212.5t-80 212.5q-82 89 -198 89t-198 -89q-80 -88 -80 -212.5t80 -212.5q29 -31 63 -52q-113 -27 -197 -94q-66 -53 -103 -121q-38 -72 -38 -151v-13h946v13q0 79 -38 151zM287 549.5q0 102.5 66 175.5
t159 73t159 -73t66 -175.5t-66 -175.5t-159 -73t-159 73t-66 175.5zM96 -37q21 121 139.5 203t276.5 82t276.5 -82t139.5 -203h-832z" />
    <glyph glyph-name="centralalignment" unicode="&#xea53;" horiz-adv-x="1025" 
d="M885 645h-746q-9 0 -16 7t-7 16t7 16t16 7h746q9 0 16 -7t7 -16t-7 -16t-16 -7zM885 361h-746q-9 0 -16 7t-7 16t7 16t16 7h746q9 0 16 -7t7 -16t-7 -16t-16 -7zM885 77h-746q-9 0 -16 7t-7 16t7 16t16 7h746q9 0 16 -7t7 -16t-7 -16t-16 -7z" />
    <glyph glyph-name="leftalignment" unicode="&#xea54;" 
d="M799 655h-574q-7 0 -12 5t-5 12t5 12.5t12 5.5h574q7 0 12 -5.5t5 -12.5t-5 -12t-12 -5zM581 511h-356q-7 0 -12 5t-5 12t5 12t12 5h356q7 0 12 -5t5 -12t-5 -12t-12 -5zM799 367h-574q-7 0 -12 5t-5 12t5 12t12 5h574q7 0 12 -5t5 -12t-5 -12t-12 -5zM581 223h-356
q-7 0 -12 5t-5 12t5 12t12 5h356q7 0 12 -5t5 -12t-5 -12t-12 -5zM799 78h-574q-7 0 -12 5.5t-5 12.5t5 12t12 5h574q7 0 12 -5t5 -12t-5 -12.5t-12 -5.5z" />
    <glyph glyph-name="rightalignment" unicode="&#xea55;" 
d="M818 673h-612q-8 0 -13.5 5.5t-5.5 13t5.5 13t13.5 5.5h612q8 0 13.5 -5.5t5.5 -13t-5.5 -13t-13.5 -5.5zM818 519h-380q-7 0 -12.5 5.5t-5.5 13t5.5 13t12.5 5.5h380q8 0 13.5 -5.5t5.5 -13t-5.5 -13t-13.5 -5.5zM818 365h-612q-8 0 -13.5 5.5t-5.5 13.5t5.5 13.5
t13.5 5.5h612q8 0 13.5 -5.5t5.5 -13.5t-5.5 -13.5t-13.5 -5.5zM818 212h-380q-7 0 -12.5 5.5t-5.5 13t5.5 13t12.5 5.5h380q8 0 13.5 -5.5t5.5 -13t-5.5 -13t-13.5 -5.5zM818 58h-612q-8 0 -13.5 5.5t-5.5 13t5.5 13t13.5 5.5h612q8 0 13.5 -5.5t5.5 -13t-5.5 -13
t-13.5 -5.5z" />
    <glyph glyph-name="shipin" unicode="&#xeb19;" 
d="M406 237l240 121q17 8 17 27t-17 27l-240 121q-15 8 -29.5 -1t-14.5 -26v-242q0 -17 14.5 -26t29.5 -1v0zM904 748h-783q-37 0 -63.5 -26.5t-26.5 -64.5v-544q0 -38 26 -64.5t64 -26.5h783q37 0 63.5 26.5t26.5 64.5v544q0 38 -26 64.5t-64 26.5v0zM211 113
q0 -13 -8.5 -22t-21.5 -9h-60q-12 0 -21 9t-9 22v60q0 13 8.5 21.5t21.5 8.5h60q13 0 21.5 -8.5t8.5 -21.5v-60zM211 355q0 -13 -8.5 -21.5t-21.5 -8.5h-60q-12 0 -21 8.5t-9 21.5v60q0 13 8.5 22t21.5 9h60q13 0 21.5 -9t8.5 -22v-60zM211 597q0 -12 -8.5 -21t-21.5 -9h-60
q-12 0 -21 8.5t-9 21.5v60q0 13 8.5 22t21.5 9h60q13 0 21.5 -9t8.5 -22v-60zM753 82h-481v606h481v-606zM934 113q0 -13 -8.5 -22t-21.5 -9h-60q-13 0 -21.5 9t-8.5 22v60q0 13 8.5 21.5t21.5 8.5h60q12 0 21 -8.5t9 -21.5v-60zM934 355q0 -13 -8.5 -21.5t-21.5 -8.5h-60
q-13 0 -21.5 8.5t-8.5 21.5v60q0 13 8.5 22t21.5 9h60q12 0 21 -9t9 -22v-60zM934 597q0 -12 -8.5 -21t-21.5 -9h-60q-13 0 -21.5 8.5t-8.5 21.5v60q0 13 8.5 22t21.5 9h60q12 0 21 -9t9 -22v-60zM934 597z" />
    <glyph glyph-name="city" unicode="&#xea25;" 
d="M704 -64v640h256v-640h-256zM64 -64v896h576v-896h-576zM0 896v-1024h1024v768h-320v256h-704zM768 128v-128h128v128h-128zM768 320v-128h128v128h-128zM768 512v-128h128v128h-128zM384 192v-128h128v128h-128zM384 384v-128h128v128h-128zM384 576v-128h128v128h-128z
M384 768v-128h128v128h-128zM192 192v-128h128v128h-128zM192 384v-128h128v128h-128zM192 576v-128h128v128h-128zM192 768v-128h128v128h-128z" />
    <glyph glyph-name="tupian1" unicode="&#xeb18;" 
d="M340.5 453q28.5 0 48.5 20t20 48t-20 48.5t-48.5 20.5t-48.5 -20.5t-20 -48.5t20 -48t48.5 -20zM649 495l-203 -286l-105 146l-172 -245h686zM923 778h-822q-15 0 -25 -10t-10 -24v-720q0 -14 10 -24t25 -10h822q15 0 25 10t10 24v720q0 14 -10 24t-25 10zM889 58h-754
v652h754v-652z" />
    <glyph glyph-name="startpage" unicode="&#xea41;" 
d="M563 153h-102q-11 0 -19.5 -8t-8.5 -20t8.5 -20.5t19.5 -8.5h102q11 0 19.5 8.5t8.5 20.5t-8.5 20t-19.5 8zM661 685h-298q-11 0 -19 -7.5t-8 -18.5v-400q0 -11 8 -19t19 -8h298q11 0 19 8t8 19v400q0 11 -8 18.5t-19 7.5zM622 298h-220v321h220v-321zM901 30h-64v695
q0 36 -25.5 61.5t-62.5 25.5h-492v51q0 14 -9.5 23.5t-23 9.5t-23.5 -9.5t-10 -23.5v-51h-68q-15 0 -26 -10.5t-11 -26t11 -26.5t26 -11h68v-695q0 -36 26 -61.5t62 -25.5h492v-51q0 -14 10 -23.5t23.5 -9.5t23 9.5t9.5 23.5v51h64q15 0 26 10.5t11 26t-11 26.5t-26 11z
M771 21h-479q-14 0 -24.5 10.5t-10.5 25.5v690h479q15 0 25 -10.5t10 -25.5v-690z" />
    <glyph glyph-name="bold" unicode="&#xeb13;" 
d="M421 90l3 -1q33 -2 49 -2q95 0 138.5 35t43.5 112q0 69 -41 103t-122 34q-24 0 -40 -0.5t-31 -1.5v-279zM421 432q4 -1 10.5 -1h18.5q85 0 125 34t40 107q0 63 -37 94t-114 31q-13 0 -40 -3h-3v-262zM198 755h326q119 0 179.5 -42.5t60.5 -127.5q0 -64 -39 -107t-116 -64
q94 -1 145.5 -47t51.5 -127q0 -103 -70 -157.5t-203 -54.5h-335v53l64 5l18 17v578l-18 16l-64 5v53z" />
    <glyph glyph-name="jiaosesheding" unicode="&#xea1e;" 
d="M979 196h-38v61q0 52 -36.5 88t-88 36t-88 -36t-36.5 -88v-61h-39q-7 0 -12 -5.5t-5 -12.5v-219q0 -7 5 -12.5t12 -5.5h326q7 0 12.5 5.5t5.5 12.5v219q0 7 -5.5 12.5t-12.5 5.5zM727 257q0 37 26 63.5t63 26.5t63.5 -26.5t26.5 -63.5v-61h-179v61zM962 -24h-291v185h291
v-185zM579 -17h-509q5 182 96.5 286.5t245.5 104.5q138 0 228 -86q6 -6 15 -6t15 6.5t5.5 15t-6.5 14.5q-63 60 -148 84q52 29 83 80.5t31 113.5q0 91 -65 156.5t-157 65.5t-157 -65.5t-65 -156.5q0 -61 31 -113t83 -81q-102 -27 -171 -105q-106 -122 -106 -335
q0 -8 6 -14.5t15 -6.5h530q9 0 15 6.5t6 15t-6 14.5t-15 6v0zM233 595.5q0 74.5 53 127.5t127.5 53t127 -53t52.5 -127.5t-52.5 -127t-127 -52.5t-127.5 52.5t-53 127z" />
    <glyph glyph-name="chuangjianjiaose" unicode="&#xea22;" 
d="M983 91h-128v129q0 8 -6 14.5t-15 6.5t-15 -6.5t-6 -14.5v-129h-129q-9 0 -15 -6t-6 -15t6 -15t15 -6h129v-129q0 -8 6 -14.5t15 -6.5t15 6.5t6 14.5v129h128q9 0 15.5 6t6.5 15t-6.5 15t-15.5 6zM734 -40h-677q5 193 103 304.5t262 111.5q97 0 174.5 -42t124.5 -120
q5 -8 14 -10.5t17 2.5t10 14t-3 17q-54 91 -144 138q-37 20 -78 31q56 31 89 86t33 121q0 98 -69 167t-167 69t-167.5 -69t-69.5 -167q0 -65 33 -120.5t88 -86.5q-109 -29 -182 -112q-113 -130 -113 -357q0 -9 6.5 -15.5t15.5 -6.5h700q10 0 16.5 6.5t6.5 16t-6.5 16
t-16.5 6.5v0zM231 612.5q0 79.5 56 136t135.5 56.5t136 -56.5t56.5 -136t-56.5 -135.5t-136 -56t-135.5 56t-56 135.5z" />
    <glyph glyph-name="yidianhao" unicode="&#xea2d;" 
d="M838 31l-192 -11l-154 -116l-143 128l-190 26l-11 192l-116 154l128 143l26 190l192 11l154 116l143 -128l190 -26l11 -192l116 -154l-128 -143zM707 283q-9 66 -59 109t-136 43t-136 -43t-59 -109q-1 -7 -3 -20q-2 -14 -3 -21.5t-1.5 -20.5t1.5 -19.5t5 -16.5
t10.5 -15.5t18 -13t26 -11t35.5 -7.5t47 -5.5t59 -1.5t59 1.5t47 5.5t35.5 7.5t26 11t18 12.5t10.5 15.5t5 17t1.5 19.5t-1.5 20.5t-3 21.5q-2 13 -3 20v0zM512 468q35 0 59.5 25t24.5 60t-24.5 59.5t-59.5 24.5t-59.5 -24.5t-24.5 -59.5t24.5 -60t59.5 -25v0zM512 468z" />
    <glyph glyph-name="gongzuoxiang" unicode="&#xea20;" 
d="M125 625h774q13 0 22 10t9 24t-9 24t-22 10h-774q-13 0 -22 -10t-9 -24t9 -24t22 -10zM192 761h640q12 0 21 10t9 24t-9 24t-21 10h-640q-12 0 -21 -10t-9 -24t9 -24t21 -10zM670 369l-181 -181l-89 90q-9 9 -22.5 8.5t-24 -10.5t-11 -23.5t8.5 -22.5l115 -116
q10 -9 23 -8q14 -1 24 8l205 206q9 9 8.5 22.5t-10.5 23.5t-23.5 11t-22.5 -8zM953 558h-882q-18 0 -31.5 -13.5t-13.5 -32.5v-564q0 -19 13.5 -32.5t31.5 -13.5h791v2q23 9 23 32.5t-23 31.5v2h-745q-10 0 -16.5 6.5t-6.5 16.5v474q0 10 6.5 16.5t16.5 6.5h790
q10 0 16.5 -6.5t6.5 -16.5v-406h2q8 -23 32 -23t32 23h2v451q0 19 -13.5 32.5t-31.5 13.5z" />
    <glyph glyph-name="iconactivitypre" unicode="&#xeb12;" 
d="M359 755h467q17 0 27.5 -12.5t7.5 -31.5l-44 -218q-3 -19 -17.5 -31.5t-34.5 -12.5h-423l-52 -261q-4 -20 -18.5 -32t-34.5 -12q-17 0 -27.5 12.5t-7.5 31.5q57 301 88 453l13 70q6 20 17 31q26 13 39 13zM556 13q19 0 31 12t12 31.5t-12 31.5t-31 12h-371q-20 0 -32 -12
t-12 -31.5t12 -31.5t32 -12h371z" />
    <glyph glyph-name="xietiim" unicode="&#xeb14;" 
d="M830 755v-53h-106l-265 -636h106v-53h-371v53h106l265 636h-106v53h371z" />
    <glyph glyph-name="grab" unicode="&#xea2c;" 
d="M563 654h-369q-14 0 -23 -9t-9 -23.5t9 -23t23 -8.5h369q15 0 24 8.5t9 23t-9 23.5t-24 9zM563 477h-369q-14 0 -23 -9t-9 -23t9 -23t23 -9h369q15 0 24 9t9 23t-9 23t-24 9zM435 300h-241q-14 0 -23 -8.5t-9 -23t9 -23.5t23 -9h241q14 0 23 9t9 23.5t-9 23t-23 8.5z
M425 72h-308q-15 0 -23.5 9t-8.5 24v674q0 15 8.5 23.5t23.5 8.5h546q14 0 23 -8.5t9 -23.5v-289q0 -14 9 -23t23.5 -9t23 9t8.5 23v289q0 41 -27.5 69t-68.5 28h-546q-41 0 -69 -28t-28 -69v-674q0 -41 28 -69t69 -28h308q15 0 23.5 9t8.5 23t-9.5 23t-22.5 9zM750 400
q-106 0 -181.5 -75.5t-75.5 -181.5t75.5 -181.5t181.5 -75.5t181.5 75.5t75.5 181.5t-75.5 181.5t-181.5 75.5zM749.5 -50q-79.5 0 -136 57t-56.5 136.5t56.5 136t136 56.5t136 -56.5t56.5 -136t-56.5 -136.5t-136 -57zM898 178q-14 14 -36 4l-90 -77v138q0 10 -7 17.5
t-18 7.5q-26 0 -26 -25v-138l-90 77q-8 6 -18 5t-17 -9q-7 -7 -6 -17t9 -18l128 -112q7 -7 16.5 -7t15.5 7l129 112q11 7 13 18t-3 17z" />
    <glyph glyph-name="draft" unicode="&#xea2b;" 
d="M659 324l76 -36q17 -7 25 -23q74 74 136 203q59 125 72 226.5t-28 121t-112 -55t-130 -198.5q-62 -129 -73 -233q6 1 10 1q13 0 24 -6zM592 182l76 -36q8 -3 17 -3q21 0 33 18q-66 45 -147 72q-5 -14 0.5 -29t20.5 -22zM602 296q9 -3 21 -8q50 -19 106 -51q12 -7 20 -12
q5 14 -1 28t-20 21l-76 36q-8 4 -17 4q-6 0 -12 -2q-13 -4 -21 -16zM580 252q30 -11 58 -23q20 -9 35 -17q28 -15 55 -33l13 28q-14 8 -30 17q-46 26 -86 42q-15 6 -33 12zM181 303q28 17 38.5 40.5t7.5 44t-18 47t-29 44t-35 42t-28 33.5q-14 18 -35 7q-19 -11 -8 -29
q0 -1 1 -2q8 -11 26.5 -30.5t32 -34t26 -35t14.5 -36.5t-8.5 -34t-36.5 -33q-27 -14 -36.5 -36t6.5 -49q6 -10 17 -17.5t28.5 -12t26.5 -6.5t31.5 -4.5t23.5 -3.5q39 -5 79 -21q-5 -2 -32 -12q-14 -6 -25.5 -10.5t-29 -13t-30 -17t-25.5 -20.5t-19 -24t-6 -27.5t8 -32.5
q10 -17 26.5 -29.5t33 -19t43.5 -10t43 -4t45 -1.5h9q-1 2 -2 5q-3 11 6 19.5t34 22.5q-9 0 -61 3t-79 8q-68 12 -43 51q18 27 62 45q4 1 13.5 4.5t18.5 6.5t20.5 7.5t20.5 9.5t17 11.5t12 13.5t3.5 15.5t-7.5 18.5t-23.5 19t-27 12t-35.5 9t-27 6q-12 3 -35.5 6.5
t-33.5 5.5q-16 3 -23.5 7.5t-9 8t4.5 9.5t11.5 10t18.5 13zM406 -4q-47 -25 -46 -31q0 -3 13 -3t40 4q39 5 109 18q54 10 87 25.5t42.5 32.5t8 34.5t-14 33.5t-25.5 28.5t-23 20t-11 7.5q-19 7 -38 7q-50 0 -74.5 -41t-0.5 -79q6 -9 -12.5 -23t-54.5 -34z" />
    <glyph glyph-name="caozuowenzi" unicode="&#xeb16;" 
d="M172 322h223l61 -194h80l-216 640h-75l-205 -639h74zM252 579q19 61 29 122q12 -51 37 -133l55 -177h-181zM731 421q-60 -8 -90 -26t-47.5 -51t-17.5 -75q0 -64 36 -102.5t97 -38.5q39 0 75 17q36 18 70 53q3 -34 13 -60l69 -1q-13 29 -16 59q-5 31 -4 147l1 111
q1 67 -8 102t-44 59.5t-97 24.5q-79 1 -122 -35t-57 -115l65 -11q11 54 34 73.5t70 19.5q51 -1 76 -30q17 -21 17 -71l-1 -21q-38 -17 -119 -29zM849 354q0 -61 -15 -92q-14 -32 -44 -51q-29 -18 -64 -18q-38 0 -59 21.5t-20 56.5q0 22 9.5 39.5t25.5 26.5q17 10 59 17
q72 12 109 30zM1000 64v-64h-960v64h960z" />
    <glyph glyph-name="centeringalignment" unicode="&#xea56;" 
d="M116 695h792v-57h-792v57zM116 469h792v-57h-792v57zM116 243h792v-57h-792v57zM286 582h452v-57h-452v57zM286 356h452v-57h-452v57zM286 130h452v-57h-452v57z" />
    <glyph glyph-name="wenbenzhantie" unicode="&#xeb04;" 
d="M655 719h-108v54q0 23 -16 39t-39 16h-108q-22 0 -38 -16t-16 -39v-54h-108v-123h433v123zM492 719h-108v54v0h108v0v-54zM529 312h106v-208h55v208h106v54h-267v-54zM763 509v183q0 11 -8 19t-19 8h-54v-44h-1v-104h-486v94v0v54h-54q-12 0 -19.5 -8t-7.5 -19v-630
q0 -12 7.5 -19.5t19.5 -7.5h258v-73h526v547h-162zM453 16v439h418v-439h-418z" />
    <glyph glyph-name="xiahuaxian" unicode="&#xeb15;" 
d="M166 74h685v-57h-685v57zM166 758h295v-45l-64 -4l-14 -13v-322q0 -92 39 -131.5t128 -39.5q82 0 119 42t37 138v309l-16 16l-65 5v45h233v-45l-63 -5l-14 -16v-319q0 -128 -64 -185t-207 -57q-75 0 -131 19.5t-89 55.5q-24 29 -34.5 66t-10.5 106v318l-14 13l-65 4v45v0
z" />
    <glyph glyph-name="channelpd-copy" unicode="&#xea33;" 
d="M511 880q-136 0 -250.5 -67t-181.5 -181.5t-67 -250.5t67 -250.5t181.5 -181.5t250.5 -67t250.5 67t181.5 181.5t67 250.5t-67 250.5t-181.5 181.5t-250.5 67zM738 65l-224 114l-221 -120l39 248l-183 173l248 40l108 227l115 -224l250 -32l-178 -178z" />
    <glyph glyph-name="bumen-copy" unicode="&#xea37;" 
d="M912 320h-16v128h-352v64h95q54 0 91.5 38t37.5 91v126q0 53 -38 91t-91 38h-254q-54 0 -91.5 -38t-37.5 -91v-126q0 -53 38 -91t91 -38h95v-64h-352v-128h-16q-46 0 -79 -33t-33 -79v-224q0 -46 33 -79t79 -33h96q46 0 79 33t33 79v224q0 46 -33 79t-79 33h-16v64h288
v-64q-40 -2 -68 -31.5t-28 -69.5v-245q0 -42 29.5 -72t71.5 -30h54q42 0 71.5 30t29.5 72v245q0 40 -28 69.5t-68 31.5v64h288v-64h-16q-46 0 -79 -33t-33 -79v-224q0 -46 33 -79t79 -33h96q46 0 79 33t33 79v224q0 46 -33 79t-79 33zM320 641v126q0 27 19 46t46 19h254
q27 0 46 -19t19 -46v-126q0 -27 -19 -46t-46 -19h-254q-27 0 -46 19t-19 46zM256 208v-224q0 -20 -14 -34t-34 -14h-96q-20 0 -34 14t-14 34v224q0 20 14 34t34 14h96q20 0 34 -14t14 -34zM576 219v-246q0 -15 -11 -26t-26 -11h-54q-15 0 -26 11t-11 26v246q0 15 11 26
t26 11h54q15 0 26 -11t11 -26zM960 -16q0 -20 -14 -34t-34 -14h-96q-20 0 -34 14t-14 34v224q0 20 14 34t34 14h96q20 0 34 -14t14 -34v-224z" />
    <glyph glyph-name="10106-copy" unicode="&#xea35;" 
d="M1024 618.5q0 33.5 -21 60t-53 33.5l-417 96q-10 3 -21 3t-22 -3l-416 -96q-32 -7 -53 -33.5t-21 -60t21 -59.5t53 -34l86 -20v-270q0 -70 86 -115t266 -45t266 45t86 115v270l86 20q32 8 53 34t21 59.5zM800 235q0 -14 -18.5 -30t-52.5 -31.5t-91.5 -25t-125.5 -9.5
t-125.5 9.5t-91.5 25t-52.5 31.5t-18.5 30v256l267 -62q10 -2 21 -2t22 2l266 62v-256zM519 491h-7.5h-6.5l-416 96q-11 3 -18 11.5t-7 20t7 20t18 11.5l416 96q3 1 6.5 1t7.5 -1l416 -96q11 -3 18 -11.5t7 -20t-7 -20t-18 -11.5zM928 459q0 13 9.5 22.5t22.5 9.5t22.5 -9.5
t9.5 -22.5v-288q0 -14 -9.5 -23t-22.5 -9t-22.5 9t-9.5 23v288zM960 107q24 0 44 -48t20 -80q0 -27 -19 -45.5t-45.5 -18.5t-45 18.5t-18.5 45.5q0 32 20 80t44 48z" />
    <glyph glyph-name="h4" unicode="&#xeb08;" 
d="M262 356q-25 0 -29.5 -3.5t-4.5 -20.5v-117q0 -57 7 -71t35 -17l26 -4q5 -3 5 -13.5t-5 -14.5q-70 2 -124 2q-59 0 -121 -2q-5 4 -5 14.5t5 13.5l19 3q28 3 35 17.5t7 71.5v303q0 56 -7 70.5t-35 17.5l-19 3q-5 4 -5 14.5t5 13.5q59 -2 121 -2q60 0 113 2q5 -3 5 -13.5
t-5 -14.5l-17 -3q-26 -3 -33 -17.5t-7 -70.5v-95q0 -18 4.5 -21t29.5 -3h170q25 0 29.5 3t4.5 21v95q0 56 -6.5 69.5t-34.5 18.5l-22 3q-5 4 -5 14.5t5 13.5q67 -2 123 -2q59 0 115 2q5 -3 5 -13.5t-5 -14.5l-16 -3q-29 -4 -35.5 -18t-6.5 -70v-303q0 -56 6.5 -69.5
t35.5 -18.5l19 -4q5 -3 5 -13.5t-5 -14.5q-61 2 -118 2q-61 0 -119 -2q-5 4 -5 14.5t5 13.5l18 3q28 3 34.5 17.5t6.5 71.5v117q0 17 -4.5 20.5t-29.5 3.5h-170zM844 192q0 12 -2 15t-12 3h-141q-11 5 -6 19l198 283q10 15 20 15h17q19 0 6 -17l-182 -253q-5 -6 -2.5 -9.5
t15.5 -3.5h75q10 0 12 3t2 15v85q0 17 13 22q45 19 60 19q7 0 7 -11v-115q0 -12 2.5 -15t11.5 -3h41q7 -4 7 -17t-7 -17h-41q-9 0 -11.5 -3t-2.5 -15v-17q0 -37 5.5 -46.5t25.5 -11.5l13 -1q4 -3 3.5 -11.5t-5.5 -9.5q-32 2 -82 2q-66 0 -97 -2q-5 1 -5.5 9.5t4.5 11.5l25 2
q22 2 27.5 11t5.5 46v17z" />
    <glyph glyph-name="tougao" unicode="&#xea47;" 
d="M963 36l-332 1l352 346q16 16 16 38t-16 37l-333 334q-16 15 -38 15t-37 -15l-522 -522q-16 -16 -16 -38t16 -37l161 -161l-153 2q-16 0 -27.5 -11.5t-11.5 -27.5v3q0 -17 11.5 -28.5t27.5 -11.5h902q16 0 27.5 11.5t11.5 28.5v-3q0 16 -11.5 27.5t-27.5 11.5v0v0z
M314 -1l-229 229q-4 4 0 9l523 522q4 5 9 0l334 -333q5 -5 0 -10l-417 -417h-220zM614 703q-10 1 -18.5 -5.5t-9.5 -16.5l-48 -380l-376 -43q-10 -1 -16.5 -9t-5.5 -19q1 -10 8 -16t17 -6h3l396 44q8 1 14.5 7.5t7.5 14.5l50 401q2 10 -4.5 18.5t-17.5 9.5v0z" />
    <glyph glyph-name="updtpwd" unicode="&#xea48;" 
d="M777 680q-5 10 -12.5 23.5t-25.5 37t-49.5 46.5t-69.5 38l-12.5 5t-31.5 10t-48 11t-57 4t-62 -7q-6 -1 -16 -3.5t-38.5 -15t-53.5 -29.5t-55.5 -49.5t-50.5 -72.5q-5 -8 -12 -24t-17.5 -70.5t-6.5 -115.5h55q-1 5 -1.5 14t1 36t6.5 52.5t17.5 58.5t31.5 60.5t52.5 52.5
t76.5 39q5 2 13.5 4.5t35.5 6t55 1.5t70 -14.5t83 -36.5q6 -5 14.5 -12.5t27.5 -30t28 -41.5q0 -6 3 -10l0.5 -0.5l0.5 -0.5v0q9 -14 24 -14q12 0 21 9t9 21q0 9 -6 17v0zM977 524q-20 18 -43 18q-26 0 -47 -20l-10 -10l-23.5 -23.5t-33 -33.5t-39 -39t-40.5 -40.5
t-38.5 -38.5t-32.5 -32l-22 -22l-8 -8q-2 -3 -3 -6q-2 -5 -5.5 -18t-8 -27.5t-8.5 -28t-7 -22.5l-3 -9q-2 -7 3 -12q4 -4 9 -4q2 0 4 1q31 11 103 33q3 0 5 3q248 246 249 246q22 23 21 47q0 24 -22 45v1zM946 444q-27 -28 -219 -217l-8 -8q-18 -6 -64 -21q15 52 19 66
l226 226q11 11 24 11q11 0 21 -10q13 -12 13 -23t-12 -24zM863 247v-237q0 -9 -5.5 -15.5t-13.5 -6.5h-727q-8 0 -13 6.5t-5 15.5v379q0 10 5 16t13 6h576v74h-614q-25 0 -43 -21.5t-18 -51.5v-424q0 -30 18 -52t43 -22h803q26 0 44 22t18 52v259h-81zM655 448.5
q0 -15.5 10.5 -26.5t26 -11t26.5 11t11 26.5t-11 26t-26.5 10.5t-26 -10.5t-10.5 -26zM863 240q0 -17 11.5 -28.5t28.5 -11.5t29 11.5t12 28.5t-12 29t-29 12t-28.5 -12t-11.5 -29z" />
    <glyph glyph-name="leida" unicode="&#xea49;" 
d="M512.5 484q41.5 0 70.5 -29.5t29 -70.5t-29 -70.5t-70.5 -29.5t-71 29.5t-29.5 70.5t29.5 70.5t71 29.5zM512.5 537q-63.5 0 -108 -45t-44.5 -108t44.5 -108t108 -45t108 45t44.5 108t-44.5 108t-108 45zM3 384q0 -113 46.5 -212.5t128.5 -171.5q8 -7 19.5 -6t17.5 10h1
q6 9 5 19t-9 17q-74 65 -115 154l25 -48q-14 22 -30 60q-36 85 -36 178t36 178q34 82 98 145q70 70 161 105q-55 -32 -84.5 -45t-36 -12t-11.5 8l-1 2l-1 1q-6 9 -17.5 10t-19.5 -6q-83 -72 -130 -172t-47 -214v0zM156 384q0 -76 30.5 -144t84.5 -118q8 -8 19.5 -7t19.5 10
v0q6 8 5 18.5t-8 17.5q-47 43 -73 101l19 -37q-6 7 -20 41q-24 56 -24 118t24 118q23 55 65 97q44 45 103 68q-15 -9 -27 -15.5t-20.5 -10.5t-15 -5.5t-10 -2.5t-7 1t-4 2.5t-3 4t-2.5 4.5v0q-8 9 -19 10t-20 -7q-55 -50 -86 -118.5t-31 -145.5zM1022 384q0 114 -47 214
t-130 172q-9 7 -20 6t-18 -10v-1q-7 -8 -6 -18t9 -17q75 -65 117 -154l-26 48q12 -15 32 -62q36 -85 36 -178t-36 -178q-35 -82 -98 -145q-70 -70 -162 -105q37 22 63 34.5t38 18.5t20.5 4.5t9 -2t5.5 -7.5v0q7 -9 18 -10t20 6q82 72 128.5 171.5t46.5 212.5zM869 384
q0 77 -31 145.5t-86 118.5q-9 8 -20.5 7t-18.5 -10v0q-6 -9 -5 -19t8 -17q47 -43 73 -101l-17 34q10 -16 20 -40q24 -56 24 -118t-24 -118q-23 -55 -65 -97q-45 -45 -105 -69q16 10 28.5 16.5t21 11t15.5 6t10.5 2.5t7 -0.5t4.5 -2t3.5 -4t2.5 -4.5v0q7 -9 18.5 -10t20.5 7
q54 50 84.5 118t30.5 144z" />
    <glyph glyph-name="duankailianjie" unicode="&#xeb22;" 
d="M186 539h135q9 0 14.5 -6t5.5 -14q0 -7 -5.5 -12t-14.5 -5h-135q-8 0 -13 5t-5 12q0 8 5 14t13 6zM273 677l95 -95q6 -6 6 -14t-5.5 -13.5t-14 -5.5t-13.5 5l-95 98q-6 6 -6 13.5t6 11.5q5 6 13 6t14 -6zM418 742v-137q0 -8 -5 -13t-12 -5q-8 0 -14 5t-6 13v137
q0 7 6 12.5t14 5.5q7 0 12 -5t5 -13zM868 249h-135q-7 0 -12 5t-5 13q0 7 5 13.5t12 6.5h135q8 0 14.5 -6.5t6.5 -13.5q0 -8 -6.5 -13t-14.5 -5zM783 109l-97 95q-6 6 -6 14t5.5 13.5t14 5.5t13.5 -5l95 -95q6 -6 6 -14t-6 -14q-12 -12 -25 0zM636 47v135q0 8 5.5 14t14.5 6
q7 0 12 -6.5t5 -13.5v-135q0 -8 -5 -14t-12 -6q-9 0 -14.5 6t-5.5 14v0zM338 249l308 308q7 7 19.5 7t20 -7.5t7.5 -20t-7 -19.5l-308 -308q-7 -7 -18.5 -7t-21.5 7q-7 10 -7 21.5t7 18.5zM558 584l98 98q35 33 86 38t84 -25l15 -15q31 -35 26.5 -86.5t-39.5 -84.5l-97 -97
q-26 -26 -65 -33t-73 8l-32 -35q41 -29 92.5 -23.5t87.5 43.5l127 125q44 43 44 103.5t-44 101.5l-17 20q-43 43 -103.5 43t-101.5 -43l-128 -128q-32 -30 -40 -77t10 -85l35 35q-7 30 3 62.5t32 54.5zM466 184l-98 -100q-33 -33 -84 -37.5t-86 27.5l-15 15q-31 33 -26 84
t39 84l97 100q26 26 66 33t72 -8l35 32q-43 28 -94 23.5t-89 -40.5l-128 -128q-43 -43 -43 -103.5t43 -101.5l21 -20q41 -41 101.5 -41t103.5 41l125 128q33 33 41 78t-11 84l-35 -35q7 -30 -2 -61.5t-33 -53.5z" />
    <glyph glyph-name="xiangpica" unicode="&#xeb03;" 
d="M911 759h-535q-44 0 -86.5 -31.5t-58.5 -75.5l-188 -536q-16 -44 4.5 -75.5t65.5 -31.5h535q44 0 86.5 31.5t58.5 75.5l188 536q16 44 -4.5 75.5t-65.5 31.5zM684 111h-548l96 273h548z" />
    <glyph glyph-name="chart-radar" unicode="&#xea51;" 
d="M490 879l-396 -229q-22 -12 -22 -37v-458q0 -25 22 -37l396 -229q22 -13 44 0l396 229q22 12 22 37v458q0 25 -22 37l-396 229q-22 13 -44 0zM526 847l380 -219l-88 -51l-291 169zM497 847v-101l-291 -169l-88 51zM104 603l88 -51v-336l-88 -51v438zM497 -79l-379 219
l88 51l291 -169v-101zM497 59l-259 150l66 38l-27 18l-54 -31v67v233l68 -39l10 28l-63 36l259 150v-91l-73 -42l36 -15l37 22v-37l29 -12v49l64 -37l46 9l-110 63v91l260 -150l-37 -21l-4 -36l56 32v-300l-79 45v58l-73 -117l59 34l78 -45l-259 -150v40l-30 19v-59v0z
M526 -79v101l292 169l88 -51zM920 165l-88 51v336l88 51v-438zM401 431l-69 40v-174l69 40v94zM347 272l150 -87v80l-81 47zM433 413v-58l50 29zM608 312l-82 -47v-80l151 87zM497 301v58l-50 -29zM497 409v58l-50 -29zM526 359v-58l51 29zM608 456l69 40l-87 50l-64 -12
v-31zM416 456l81 47v43l-37 15l-113 -65zM749 538l6 39l-119 -22l72 -41zM424 576l-92 38l-31 -91l15 -9zM302 489l-11 6l-68 -194l54 -36l25 14v210zM526 467v-58l51 29zM591 355v58l-50 -29zM316 254l-12 -7l193 -129v32zM692 471l-69 -40v-94l69 -40v174zM526 99l33 -22
l90 143l-123 -70v-51zM722 337l23 165l-23 -13v-152z" />
  </font>
</defs>
</svg>
