<?xml version="1.0" standalone="no"?>
<!DOCTYPE svg PUBLIC "-//W3C//DTD SVG 1.1//EN" "http://www.w3.org/Graphics/SVG/1.1/DTD/svg11.dtd" >
<svg xmlns="http://www.w3.org/2000/svg">
<metadata>Generated by IcoMoon</metadata>
<defs>
<font id="icomoon" horiz-adv-x="1024">
<font-face units-per-em="1024" ascent="896" descent="-128" />
<missing-glyph horiz-adv-x="1024" />
<glyph unicode="&#x20;" d="" />
<glyph unicode="&#xf100;" glyph-name="ion-alert-circled" d="M890 52c6-10 10-26 4-36s-16-16-28-16h-836c-12 0-22 6-28 16s-2 26 4 36l414 698c6 10 16 18 28 18s22-8 28-18zM512 96v96h-128v-96h128zM512 256v288h-128v-288h128z" />
<glyph unicode="&#xf101;" glyph-name="ion-alert" horiz-adv-x="256" d="M256-64h-256v192h256v-192zM224 256h-192l-32 576h256z" />
<glyph unicode="&#xf102;" glyph-name="ion-archive" d="M448 280l-256 232h160v192h192v-192h160zM866 302c22-12 34-38 30-64l-18-134c-4-26-18-40-56-40h-748c-36 0-52 14-56 40l-18 134c-4 26 6 52 28 64l144 110h84l-124-124h100c4 0 10-2 12-6l36-90h336l36 90c2 4 6 6 10 6h102l-124 124h84z" />
<glyph unicode="&#xf103;" glyph-name="ion-arrow-down-a" horiz-adv-x="768" d="M384 0l-384 384h224v384h320v-384h224z" />
<glyph unicode="&#xf104;" glyph-name="ion-arrow-down-b" horiz-adv-x="640" d="M6 526c-4 4-6 12-6 18 0 18 16 32 34 32v0h572c18 0 34-14 34-32 0-6-2-12-6-16l-4-6-272-312c-10-10-22-18-38-18s-28 8-38 18l-272 312z" />
<glyph unicode="&#xf105;" glyph-name="ion-arrow-down-c" horiz-adv-x="548" d="M530 250l-210-200c-12-12-28-18-46-18s-32 6-44 18l-212 200c-24 24-24 62 0 86s68 24 92 0l100-96v434c0 34 28 62 64 62s64-28 64-62v-434l100 96c24 24 68 24 92 0s24-62 0-86z" />
<glyph unicode="&#xf106;" glyph-name="ion-arrow-left-a" horiz-adv-x="768" d="M0 384l384 384v-224h384v-320h-384v-224z" />
<glyph unicode="&#xf107;" glyph-name="ion-arrow-left-b" horiz-adv-x="384" d="M334 698c4 4 12 6 18 6 18 0 32-16 32-34v0-572c0-18-14-34-32-34-6 0-14 2-18 6l-4 4-312 272c-10 10-18 22-18 38s8 28 18 38l312 272z" />
<glyph unicode="&#xf108;" glyph-name="ion-arrow-left-c" horiz-adv-x="704" d="M218 640c24 24 64 24 88 0s24-68 0-92l-98-100h434c34 0 62-28 62-64s-28-64-62-64h-434l96-100c24-24 24-68 0-92s-62-24-86 0l-200 212c-12 12-18 26-18 44s6 34 18 46z" />
<glyph unicode="&#xf109;" glyph-name="ion-arrow-right-a" horiz-adv-x="768" d="M768 384l-384-384v224h-384v320h384v224z" />
<glyph unicode="&#xf10a;" glyph-name="ion-arrow-right-b" horiz-adv-x="384" d="M50 70c-4-4-12-6-18-6-18 0-32 16-32 34v0 572c0 18 14 34 32 34 6 0 12-2 16-6l6-4 312-272c10-10 18-22 18-38s-8-28-18-38l-312-272z" />
<glyph unicode="&#xf10b;" glyph-name="ion-arrow-right-c" horiz-adv-x="704" d="M486 640l200-210c12-12 18-28 18-46s-6-32-18-44l-200-212c-24-24-62-24-86 0s-24 68 0 92l96 100h-434c-34 0-62 28-62 64s28 64 62 64h434l-98 100c-24 24-24 68 0 92s64 24 88 0z" />
<glyph unicode="&#xf10c;" glyph-name="ion-arrow-up-a" horiz-adv-x="768" d="M384 768l384-384h-224v-384h-320v384h-224z" />
<glyph unicode="&#xf10d;" glyph-name="ion-arrow-up-b" horiz-adv-x="640" d="M634 242c4-4 6-12 6-18 0-18-16-32-34-32v0h-572c-18 0-34 14-34 32 0 6 2 12 6 16l4 6 272 312c10 10 22 18 38 18s28-8 38-18l272-312z" />
<glyph unicode="&#xf10e;" glyph-name="ion-arrow-up-c" horiz-adv-x="548" d="M18 518l210 200c12 12 28 18 46 18s32-6 44-18l212-200c24-24 24-62 0-86s-68-24-92 0l-100 96v-434c0-34-28-62-64-62s-64 28-64 62v434l-100-98c-24-24-68-24-92 0s-24 64 0 88z" />
<glyph unicode="&#xf10f;" glyph-name="ion-at" d="M844 82c-48-50-104-86-170-110s-138-36-210-36c-70 0-132 12-190 34s-106 52-146 92-72 86-94 142-34 116-34 180 12 124 36 178 58 102 100 142 92 70 148 94c56 22 116 34 180 34 56 0 110-8 162-24s98-40 138-72 72-72 96-120 36-106 36-170c0-48-6-92-20-128s-32-68-54-92-48-44-76-56-58-20-90-20-58 8-78 24-30 34-30 58h-6c-12-20-30-38-56-56s-56-26-92-26c-56 0-98 18-128 54s-46 84-46 142c0 34 6 68 18 100s28 62 48 88 46 46 76 62 62 24 98 24c30 0 54-8 76-20 20-12 36-30 42-48h2l10 48h108l-48-226c-2-12-4-24-6-38s-4-26-4-38c0-14 2-26 8-36s14-14 30-14c32 0 58 18 78 52s32 80 32 136c0 48-8 90-24 128s-40 68-68 94-64 46-104 58-82 18-130 18c-52 0-98-8-140-26s-78-44-108-76-54-68-70-112c-16-42-26-88-26-138 0-52 8-102 26-144s42-78 74-108 70-54 114-70 92-24 144-24c66 0 122 12 170 32s90 50 130 86zM462 520c-20 0-36-4-50-16s-28-26-38-44-16-36-22-56-8-40-8-60c0-10 0-20 2-32 2-10 6-20 12-30s14-16 24-22 22-10 38-10c22 0 40 6 56 16s28 26 38 42 18 32 22 52 6 38 6 54c0 12 0 26-2 38s-8 24-14 34-14 18-24 24-24 10-40 10z" />
<glyph unicode="&#xf110;" glyph-name="ion-bag" d="M832 576l64-640h-896l64 640h128v8c0 136 112 248 248 248h16c136 0 248-112 248-248v-8h128zM256 584v-8h384v8c0 102-82 184-184 184v0h-16c-102 0-184-82-184-184zM72 0h752l-50 512h-70v-72c20-12 32-32 32-56 0-36-28-64-64-64s-64 28-64 64c0 24 12 44 32 56v72h-384v-72c20-12 32-32 32-56 0-36-28-64-64-64s-64 28-64 64c0 24 12 44 32 56v72h-70z" />
<glyph unicode="&#xf111;" glyph-name="ion-battery-charging" d="M20 128c-12 0-20 8-20 20v472c0 12 8 20 20 20h762c12 0 20-8 20-20v-108h74c12 0 20-8 20-20v-216c0-12-8-20-20-20h-74v-108c0-12-8-20-20-20h-762zM450 576l-200-222h122l-54-162 200 222h-122z" />
<glyph unicode="&#xf112;" glyph-name="ion-battery-empty" d="M876 512c12 0 20-8 20-20v-216c0-12-8-20-20-20h-74v-108c0-12-8-20-20-20h-762c-12 0-20 8-20 20v472c0 12 8 20 20 20h762c12 0 20-8 20-20v-108h74zM832 320v128h-94v128h-674v-384h674v128h94z" />
<glyph unicode="&#xf113;" glyph-name="ion-battery-full" d="M876 512c12 0 20-8 20-20v-216c0-12-8-20-20-20h-74v-108c0-12-8-20-20-20h-762c-12 0-20 8-20 20v472c0 12 8 20 20 20h762c12 0 20-8 20-20v-108h74z" />
<glyph unicode="&#xf114;" glyph-name="ion-battery-half" d="M876 512c12 0 20-8 20-20v-216c0-12-8-20-20-20h-74v-108c0-12-8-20-20-20h-762c-12 0-20 8-20 20v472c0 12 8 20 20 20h762c12 0 20-8 20-20v-108h74zM832 320v128h-94v128h-162l64-384h98v128h94z" />
<glyph unicode="&#xf115;" glyph-name="ion-battery-low" d="M20 128c-12 0-20 8-20 20v472c0 12 8 20 20 20h762c12 0 20-8 20-20v-108h74c12 0 20-8 20-20v-216c0-12-8-20-20-20h-74v-108c0-12-8-20-20-20h-762zM738 576h-418l64-384h354v128h94v128h-94v128z" />
<glyph unicode="&#xf116;" glyph-name="ion-bluetooth" horiz-adv-x="512" d="M24 608c32 32 36 26 38 24l136-130c4-4 20-20 20-6v316c0 12 12 20 24 20 8 0 14-4 18-8v0s234-226 244-234 10-20 2-28l-168-162s-8-8-8-16 8-16 8-16l168-162c8-8 8-20-2-28s-244-234-244-234v0c-4-4-10-8-18-8-12 0-24 8-24 20v316s-16-2-20-6v0-2l-136-128c-2-2-6-8-38 24s-24 34-22 36 180 172 180 172 8 6 8 16v0c0 10-8 16-8 16s-178 170-180 172-10 4 22 36zM304 656v-158c0-16 16-2 20 2l60 60s6 10 6 14-2 10-6 14l-60 60c-4 4-20 22-20 8zM304 270v-158s16 4 20 8l60 60c4 4 6 10 6 14s-2 10-6 14l-60 60c-4 4-20 18-20 2z" />
<glyph unicode="&#xf117;" glyph-name="ion-calendar" d="M224 640c-36 0-64 28-64 64v64c0 36 28 64 64 64s64-28 64-64v-64c0-36-28-64-64-64zM672 640c-36 0-64 28-64 64v64c0 36 28 64 64 64s64-28 64-64v-64c0-36-28-64-64-64zM880 768c8 0 16-8 16-16v-800c0-8-8-16-16-16h-864c-8 0-16 8-16 16v800c0 8 8 16 16 16h112v-82c0-44 48-78 96-78s96 34 96 78v82h256v-82c0-44 50-78 98-78s94 34 94 78v82h112zM800 32v512h-704v-512h704z" />
<glyph unicode="&#xf118;" glyph-name="ion-camera" horiz-adv-x="832" d="M764 602c36 0 68-28 68-66v-404c0-38-32-68-68-68h-696c-38 0-68 30-68 68v404c0 38 30 66 68 66h138l78 80c12 14 30 22 50 22h168c18 0 34-8 46-20v0 0 0l82-82h134zM416 164c102 0 184 84 184 186s-82 186-184 186-184-84-184-186 82-186 184-186zM752 496c16 0 28 12 28 28s-12 28-28 28-28-12-28-28 12-28 28-28zM416 490c76 0 140-62 140-140s-64-140-140-140c-78 0-140 62-140 140s62 140 140 140z" />
<glyph unicode="&#xf119;" glyph-name="ion-card" d="M840 704c32 0 56-24 56-56v0-528c0-32-24-56-56-56h-784c-32 0-56 24-56 56v0 0 528c0 32 24 56 56 56h784zM90 640c-14 0-24-10-26-24v-40h768v40c-2 14-12 24-26 24h-716zM806 128c14 0 24 10 26 24v232h-768v-232c2-14 12-24 26-24h716zM128 256v32h384v-32h-384zM128 192v32h192v-32h-192zM640 192v96h128v-96h-128z" />
<glyph unicode="&#xf11a;" glyph-name="ion-chatbox-working" horiz-adv-x="832" d="M152 96c-84 0-152 62-152 142v418c0 80 68 144 152 144h528c84 0 152-64 152-144v-418c0-80-68-142-152-142h-8v-128s-158 108-172 118-14 10-42 10h-306zM608 512c-36 0-64-28-64-64s28-64 64-64 64 28 64 64-28 64-64 64zM416 512c-36 0-64-28-64-64s28-64 64-64 64 28 64 64-28 64-64 64zM224 512c-36 0-64-28-64-64s28-64 64-64 64 28 64 64-28 64-64 64z" />
<glyph unicode="&#xf11b;" glyph-name="ion-chatbox" horiz-adv-x="832" d="M152 96c-84 0-152 62-152 142v418c0 80 68 144 152 144h528c84 0 152-64 152-144v-418c0-80-68-142-152-142h-8v-128s-158 108-172 118-14 10-42 10h-306z" />
<glyph unicode="&#xf11c;" glyph-name="ion-chatboxes" horiz-adv-x="832" d="M492 164l52-36c-8-42-58-64-104-64h-180c-16 0-22-4-26-6l-106-90v96h-32c-52 0-96 32-96 82v258c0 50 40 90 92 90h4v-202c0-66 58-118 128-118h234c20 0 28-6 34-10zM706 800c70 0 126-54 126-120v-336c0-66-56-120-126-120h-34v-128l-150 120c-4 4-14 8-34 8h-202c-70 0-126 54-126 120v336c0 66 42 120 112 120h434z" />
<glyph unicode="&#xf11d;" glyph-name="ion-chatbubble-working" horiz-adv-x="832" d="M416-2c-230 0-416 178-416 400s186 402 416 402 416-180 416-402c0-80-24-154-66-216-2-2-4-6-6-8v0c-4-8-8-20-8-30l44-176-168 62c-8 4-16 4-24 4s-14-2-22-4v0c-2 0-2-2-4-2-50-20-104-30-162-30zM608 448c-36 0-64-28-64-64s28-64 64-64 64 28 64 64-28 64-64 64zM416 448c-36 0-64-28-64-64s28-64 64-64 64 28 64 64-28 64-64 64zM224 448c-36 0-64-28-64-64s28-64 64-64 64 28 64 64-28 64-64 64z" />
<glyph unicode="&#xf11e;" glyph-name="ion-chatbubble" horiz-adv-x="832" d="M416-2c-230 0-416 178-416 400s186 402 416 402 416-180 416-402c0-80-24-154-66-216-2-2-4-6-6-8v0c-4-8-8-20-8-30l44-176-168 62c-8 4-16 4-24 4s-14-2-22-4v0c-2 0-2-2-4-2-50-20-104-30-162-30z" />
<glyph unicode="&#xf11f;" glyph-name="ion-chatbubbles" horiz-adv-x="832" d="M50 114c-2 2 0 4-2 6-30 44-48 98-48 154 0 84 38 160 98 212-4-22-8-44-8-68 0-184 156-336 348-336 30 0 60 4 88 12-54-64-138-106-230-106-40 0-80 10-116 24h-2c-4 2-10 4-16 4s-12-2-18-4l-112-44 24 126c0 8-2 14-6 20v0zM484 800c192 0 348-152 348-336 0-66-22-128-56-180-2-2-2-4-4-6v0c-4-8-6-16-6-24l34-148-138 52c-6 2-12 4-20 4-6 0-12-2-18-4v0l-4-2c-16-6-32-10-48-14-28-8-58-12-88-12-192 0-346 150-346 334 0 24 2 48 6 70 32 152 172 266 340 266z" />
<glyph unicode="&#xf120;" glyph-name="ion-checkmark-circled" d="M448 832c248 0 448-200 448-448s-200-448-448-448-448 200-448 448 200 448 448 448zM678 534c2 2 2 4 2 6s0 6-2 8l-62 48c-2 2-6 2-8 2s-4 0-6-2l-222-286s-88 84-90 86-8 6-12 6-6-4-8-6l-52-52c-2-2-2-6-2-8s0-4 2-6l4-2s156-150 158-152 6-6 10-6 8 4 10 6z" />
<glyph unicode="&#xf121;" glyph-name="ion-checkmark-round" horiz-adv-x="832" d="M800 752c34-26 44-78 18-114l-414-604c-26-36-74-44-108-18s-274 294-274 294c-30 32-30 84 2 116s80 30 110-4l198-214 360 526c26 36 74 44 108 18z" />
<glyph unicode="&#xf122;" glyph-name="ion-checkmark" horiz-adv-x="832" d="M828 676c2-4 4-8 4-12s-2-8-4-12l-498-640c-4-4-10-12-18-12s-16 6-20 10-282 272-282 272l-6 6c-2 4-4 8-4 12s2 6 4 10l4 4c28 30 84 88 88 92s8 12 16 12 16-8 20-12 160-156 160-156l400 514c4 4 8 4 12 4s10-2 14-4z" />
<glyph unicode="&#xf123;" glyph-name="ion-chevron-down" d="M448 300v0 0l348 334c8 8 24 8 32 0l62-60c8-8 8-24 0-32l-426-408c-4-4-10-6-16-6s-12 2-16 6l-426 408c-8 8-8 24 0 32l62 60c8 8 24 8 32 0z" />
<glyph unicode="&#xf124;" glyph-name="ion-chevron-left" horiz-adv-x="512" d="M172 384l334-348c8-8 8-24 0-32l-60-62c-8-8-24-8-32 0l-408 426c-4 4-6 10-6 16s2 12 6 16l408 426c8 8 24 6 32-2l60-60c8-8 8-24 0-32l-334-348z" />
<glyph unicode="&#xf125;" glyph-name="ion-chevron-right" horiz-adv-x="512" d="M340 384v0 0l-334 348c-8 8-8 24 0 32l60 60c8 8 24 10 32 2l408-426c4-4 6-10 6-16s-2-12-6-16l-408-426c-8-8-24-8-32 0l-60 62c-8 8-8 24 0 32z" />
<glyph unicode="&#xf126;" glyph-name="ion-chevron-up" d="M448 468l-348-334c-8-8-24-8-32 0l-62 60c-8 8-8 24 0 32l426 408c4 4 10 6 16 6s12-2 16-6l426-408c8-8 8-24 0-32l-62-60c-8-8-24-8-32 0l-348 334z" />
<glyph unicode="&#xf127;" glyph-name="ion-clipboard" horiz-adv-x="704" d="M160 576c4 40 20 70 56 80l2 2c24 6 42 14 42 40v42c0 52 42 92 92 92s92-40 92-92v-42c0-26 18-36 42-42h4c36-10 50-40 54-80h-384zM352 768c-16 0-26-12-26-28s10-28 26-28 28 12 28 28-12 28-28 28zM650 768c30 0 54-24 54-56v-720c0-32-24-56-54-56h-594c-30 0-56 24-56 56v720c0 32 26 56 56 56h146v-26c0-22-18-38-38-38h-74c-14 0-24-12-24-26v-654c0-12 10-24 22-24h530c12 0 22 12 22 24v654c0 14-10 26-24 26h-74c-20 0-40 16-40 38v26h148zM128 448v64h224v-64h-224zM128 64v64h320v-64h-320zM128 192v64h258v-64h-258zM128 320v64h416v-64h-416z" />
<glyph unicode="&#xf128;" glyph-name="ion-close-circled" d="M448 830c248 0 448-200 448-448s-200-448-448-448-448 200-448 448 200 448 448 448zM664 232l-150 150 152 150c6 6 6 18 0 24l-44 42c-4 4-8 6-12 6s-6-2-10-6l-152-148-152 148c-4 4-6 6-10 6s-8-2-12-6l-42-42c-6-6-6-18 0-24l152-150-152-152c-4-2-4-6-4-10s0-8 4-12l42-44c4-4 8-4 12-4s8 0 12 4l150 152 152-150c4-4 6-6 10-6s8 2 12 6l42 42c4 2 6 8 6 12s-2 8-6 12z" />
<glyph unicode="&#xf129;" glyph-name="ion-close-round" horiz-adv-x="768" d="M748 122c28-28 28-74 0-102s-74-28-102 0l-262 262-262-262c-28-28-72-28-100 0s-28 74 0 102l260 262-260 262c-28 28-28 74 0 102s72 28 100 0l262-262 262 262c28 28 74 28 102 0s28-74 0-102l-262-262z" />
<glyph unicode="&#xf12a;" glyph-name="ion-close" horiz-adv-x="768" d="M760 122c6-6 8-12 8-20s-2-14-8-20l-76-74c-6-6-10-8-18-8s-14 2-20 8l-262 262-262-262c-6-6-10-8-18-8s-14 2-20 8l-76 74c-6 6-8 12-8 20s2 14 8 20l264 262-264 260c-10 10-10 30 0 40l74 76c6 4 12 8 20 8s14-2 20-8l262-260 262 260c6 4 12 8 20 8s14-2 20-8l74-76c10-10 10-28 0-38l-264-260z" />
<glyph unicode="&#xf12b;" glyph-name="ion-cloud" d="M732 430c90 0 164-76 164-168s-74-166-164-166v0h-552c-98 0-180 82-180 182 0 80 52 148 122 172 10 58 58 102 118 102 20 0 36-6 52-14 38 80 118 134 210 134 128 0 230-106 230-236v-6z" />
<glyph unicode="&#xf12c;" glyph-name="ion-compose" horiz-adv-x="768" d="M758 696c14-14 14-36 0-50l-64-62-110 110 62 64c14 14 36 14 50 0zM564 676l110-110-354-346-128-28 28 128zM640 384l64 64v-402c0-26-20-46-46-46h-612c-26 0-46 20-46 46v612c0 26 20 46 46 46h402l-64-64h-298c-12 0-22-10-22-20v-536s8-20 20-20h538s18 10 18 20v300z" />
<glyph unicode="&#xf12d;" glyph-name="ion-disc" d="M448 578c108 0 194-86 194-194s-86-194-194-194-194 86-194 194 86 194 194 194zM448 296c48 0 88 40 88 88s-40 88-88 88-88-40-88-88 40-88 88-88zM448 832c248 0 448-200 448-448s-200-448-448-448-448 200-448 448 200 448 448 448zM448 138c136 0 246 110 246 246s-110 246-246 246-246-110-246-246 110-246 246-246z" />
<glyph unicode="&#xf12e;" glyph-name="ion-document-text" horiz-adv-x="576" d="M572 558c2-6 4-12 4-20v-490c0-26-20-48-44-48h-486c-24 0-46 22-46 48v672c0 26 22 48 46 48h320c6 0 12 0 18-4 4-2 10-6 14-10l168-184c4-4 4-8 6-12zM96 538v-20c0-2 2-6 6-6h142c4 0 6 4 6 6v20c0 4-2 6-6 6h-142c-4 0-6-2-6-6zM96 282v-20c0-2 2-6 6-6h246c4 0 4 4 4 6v20c0 4 0 6-4 6h-246c-4 0-6-2-6-6zM416 134v20c0 4 0 6-4 6h-310c-4 0-6-2-6-6v-20c0-2 2-6 6-6h310c4 0 4 4 4 6zM480 390v20c0 4 0 6-4 6h-374c-4 0-6-2-6-6v-20c0-2 2-6 6-6h374c4 0 4 4 4 6zM386 540h120l-142 156v-132c0-12 10-24 22-24z" />
<glyph unicode="&#xf12f;" glyph-name="ion-document" horiz-adv-x="576" d="M574 558c2-6 2-10 2-18v-488c0-26-18-52-42-52h-486c-24 0-48 26-48 52v670c0 26 24 46 48 46h320c6 0 12 0 18-4 4-2 10-4 14-8l166-184c4-4 6-8 8-14zM386 674v-126h116zM64 64h448v420h-134c-30 0-56 26-56 56v164h-258v-640z" />
<glyph unicode="&#xf130;" glyph-name="ion-drag" d="M0 544v64h1024v-64h-1024zM0 352v64h1024v-64h-1024zM0 160v64h1024v-64h-1024z" />
<glyph unicode="&#xf131;" glyph-name="ion-eject" horiz-adv-x="640" d="M606 256h-572c-20 0-34 14-34 32 0 6 2 10 6 16l276 382c10 10 22 18 38 18s28-8 38-18l276-380c4-6 6-12 6-18 0-18-14-32-34-32v0zM616 192c14 0 24-10 24-24v-80c0-14-10-24-24-24h-592c-14 0-24 10-24 24v80c0 14 10 24 24 24h592z" />
<glyph unicode="&#xf132;" glyph-name="ion-email" horiz-adv-x="832" d="M38 598c-8 4-22 14-26 22-6 16 2 20 24 20h764c22 0 30-4 24-20-4-8-18-18-26-22-22-12-326-178-338-184s-24-8-42-8-30 2-42 8-316 172-338 184zM816 590c18 8 16-2 16-10v-410c0-18-24-42-44-42h-740c-20 0-48 24-48 42v410s0 18 18 10c16-8 166-112 264-176l-166-186c-4-4-4-8-2-10s8-2 12 2l196 166c30-20 50-32 54-34 16-8 28-8 42-8s26 0 42 8c4 2 24 14 54 34l196-166c4-4 10-4 12-2s0 6-4 10l-164 186c98 64 246 168 262 176z" />
<glyph unicode="&#xf133;" glyph-name="ion-eye" d="M448 640c198 0 344-140 448-258-102-100-248-254-448-254s-314 120-448 256c156 158 284 256 448 256zM448 202c98 0 180 82 180 182s-82 182-180 182-180-82-180-182 82-182 180-182zM448 448c0-36 28-64 64-64 16 0 28 6 40 14v-14c0-58-46-106-104-106s-104 48-104 106 46 106 104 106h16c-10-12-16-26-16-42z" />
<glyph unicode="&#xf134;" glyph-name="ion-filing" horiz-adv-x="768" d="M634 638c24 0 38 0 38-40v-56h-576v56c0 40 16 40 40 40h498zM538 704c26 0 38-2 38-38h-384c0 36 14 38 40 38h306zM736 556c26-16 34-34 30-82l-34-368c-8-42-32-42-48-42h-600c-16 0-40 0-48 42l-34 370c-6 52 2 62 30 80l30 20v-64h642v64z" />
<glyph unicode="&#xf135;" glyph-name="ion-film-marker" horiz-adv-x="832" d="M800 480c18 0 32-14 32-30v-420c0-16-14-30-32-30h-768c-18 0-32 14-32 30v420c0 16 12 28 26 30-4 4-6 8-8 14l-18 90c-4 16 10 32 26 36l740 148c16 4 32-8 36-24l18-92c4-16-8-32-24-36l-684-136h688zM514 92l-40 116 102 72h-124l-40 116-38-116h-126l102-72-38-116 100 72z" />
<glyph unicode="&#xf136;" glyph-name="ion-flash-off" d="M230-8c-138 76-230 224-230 392 0 248 200 448 448 448 48 0 94-8 136-22 4-2 6-2 10-4 24-8 48-18 70-30v0c138-76 232-224 232-392 0-248-200-448-448-448-48 0-94 8-136 22-4 2-6 2-10 4-24 8-48 16-70 28zM172 582c-40-56-64-124-64-198 0-130 72-242 180-300 12-6 26-14 38-18 4-2 6-2 10-4 18-6 38-10 58-14 18-4 36-4 54-4 74 0 142 24 198 64l-104 106 72 80 110-108c40 56 64 124 64 198 0 132-74 246-182 302-12 6-24 12-36 16-4 2-6 2-10 4-18 6-38 10-58 14-18 4-36 4-54 4-74 0-144-24-200-64l106-104-72-82zM356 116l76 226h-170l278 310-76-226h170z" />
<glyph unicode="&#xf137;" glyph-name="ion-flash" horiz-adv-x="640" d="M0 320l448 512-102-384h294l-448-512 102 384h-294z" />
<glyph unicode="&#xf139;" glyph-name="ion-folder" horiz-adv-x="768" d="M732 512c36 0 38-14 36-36l-24-372c-2-22-6-40-42-40h-634c-36 0-40 18-42 40l-26 368c-2 22 0 40 36 40h696zM724 610l4-66h-688c0 12 8 92 12 126 4 36 16 34 50 34h150c56 0 46 0 74-30 32-36 38-34 82-34h286c22 0 30-6 30-30z" />
<glyph unicode="&#xf13a;" glyph-name="ion-forward" horiz-adv-x="768" d="M448 300c-204 0-342-18-448-204 0 0 74 416 448 416v160l320-288-320-268v184z" />
<glyph unicode="&#xf13d;" glyph-name="ion-gear-a" horiz-adv-x="768" d="M694 384c0-48 30-86 74-112-8-26-20-52-32-76-50 12-90-6-124-40s-44-74-32-124c-24-12-50-24-76-32-26 44-72 74-120 74s-94-30-120-74c-26 8-54 20-78 32 12 50 4 90-30 124s-74 42-124 30c-12 24-24 52-32 78 44 26 74 72 74 120s-30 86-74 112c8 26 18 52 32 76 50-12 90 6 124 40s42 74 30 124c24 12 52 24 78 32 26-44 72-74 120-74s94 30 120 74c26-8 54-20 78-32-12-50-4-90 30-124s74-52 124-40c12-24 24-50 32-76-44-26-74-64-74-112zM384 188c108 0 196 88 196 196s-88 196-196 196-196-88-196-196 88-196 196-196z" />
<glyph unicode="&#xf13e;" glyph-name="ion-gear-b" horiz-adv-x="768" d="M768 308h-88c-8-28-20-54-34-78l64-64-108-108-66 64c-24-14-48-22-76-30v-92h-152v92c-26 8-52 16-76 30l-66-64-108 108 64 64c-14 24-26 50-34 78h-88v152h86c8 28 18 58 32 82l-60 60 108 108 58-58c26 16 54 26 84 34v82h152v-82c30-8 58-18 84-34l58 58 108-108-60-60c14-24 26-54 32-82h86v-152zM384 276c60 0 108 48 108 108s-48 108-108 108-108-48-108-108 48-108 108-108z" />
<glyph unicode="&#xf13f;" glyph-name="ion-grid" horiz-adv-x="640" d="M128 590c0-8-6-14-14-14h-100c-8 0-14 6-14 14v100c0 8 6 14 14 14h100c8 0 14-6 14-14v-100zM384 590c0-8-6-14-14-14h-100c-8 0-14 6-14 14v100c0 8 6 14 14 14h100c8 0 14-6 14-14v-100zM640 590c0-8-6-14-14-14h-100c-8 0-14 6-14 14v100c0 8 6 14 14 14h100c8 0 14-6 14-14v-100zM128 334c0-8-6-14-14-14h-100c-8 0-14 6-14 14v100c0 8 6 14 14 14h100c8 0 14-6 14-14v-100zM384 334c0-8-6-14-14-14h-100c-8 0-14 6-14 14v100c0 8 6 14 14 14h100c8 0 14-6 14-14v-100zM640 334c0-8-6-14-14-14h-100c-8 0-14 6-14 14v100c0 8 6 14 14 14h100c8 0 14-6 14-14v-100zM128 78c0-8-6-14-14-14h-100c-8 0-14 6-14 14v100c0 8 6 14 14 14h100c8 0 14-6 14-14v-100zM384 78c0-8-6-14-14-14h-100c-8 0-14 6-14 14v100c0 8 6 14 14 14h100c8 0 14-6 14-14v-100zM640 78c0-8-6-14-14-14h-100c-8 0-14 6-14 14v100c0 8 6 14 14 14h100c8 0 14-6 14-14v-100z" />
<glyph unicode="&#xf140;" glyph-name="ion-headphone" horiz-adv-x="768" d="M766 420c6-102-6-260-26-324-40-134-80-160-144-160s-116 54-116 118v212c0 66 46 118 106 118 36 0 68-18 88-48 0 0 22 14 26 44s8 68-10 128-42 38-72 76c-4 6-10 14-16 20l-20 20c-4 4-6 6-10 8-22 18-42 34-68 46-38 18-78 26-120 26s-84-8-122-26c-26-12-44-28-66-46-4-2-6-4-10-8l-20-20s-12-14-16-20c-30-38-54-16-72-76-18-62-14-98-10-128s26-44 26-44c20 30 52 48 88 48 60 0 106-54 106-118v-212c0-64-52-118-116-118s-104 26-144 160c-20 64-32 222-26 324 6 120 44 216 112 290v0c16 16 30 32 48 46s38 26 58 36c50 26 106 40 164 40s114-14 164-40c20-10 38-22 56-36s34-30 50-46v0c68-74 106-170 112-290z" />
<glyph unicode="&#xf141;" glyph-name="ion-heart" horiz-adv-x="832" d="M764 704c92-94 92-248 0-342l-348-362-348 362c-92 94-92 248 0 342 80 84 214 84 294 0l54-56 56 56c80 84 212 84 292 0z" />
<glyph unicode="&#xf142;" glyph-name="ion-help-circled" d="M448 832c248 0 448-200 448-448s-200-448-448-448-448 200-448 448 200 448 448 448zM488 178c2 36-24 62-58 62-32 0-60-22-60-58s24-60 56-60c34 0 62 20 62 56zM586 434c14 20 24 44 24 72 0 46-18 80-50 104-34 26-74 36-124 36-38 0-68-8-94-26-38-26-56-68-56-136h98c0 18-2 38 8 54s26 30 52 30 38-6 50-22c10-14 16-30 16-46 0-14-8-28-16-40-4-8-12-14-20-20 0 0-52-30-70-60-14-22-18-48-20-82 0-2 0-8 8-8h78s10 6 10 8c0 12 2 30 4 38 4 14 12 24 24 34l28 18c24 18 42 34 50 46z" />
<glyph unicode="&#xf143;" glyph-name="ion-help" horiz-adv-x="512" d="M434 742c50-38 78-92 78-166 0-44-16-84-38-114-14-18-42-42-80-72l-42-28c-20-16-34-36-40-56-4-12-6-38-6-58 0-4-2-12-14-12h-124c-14 0-14 6-14 10 2 52 8 98 30 132 30 46 114 96 114 96 12 10 22 18 30 30 14 20 24 42 24 64 0 26-6 52-22 72-20 24-42 36-82 36s-64-22-80-48-14-58-14-86h-154c0 108 28 176 88 216 40 28 90 40 150 40 78 0 140-14 196-56zM228 156c54-2 94-40 92-96s-44-92-98-90c-52 2-92 38-90 94s44 94 96 92z" />
<glyph unicode="&#xf144;" glyph-name="ion-home" horiz-adv-x="768" d="M768 320h-96v-320h-192v256h-192v-256h-192v320h-96l384 448z" />
<glyph unicode="&#xf147;" glyph-name="ion-image" d="M672 448c-52 0-96 44-96 96s44 96 96 96 96-44 96-96-44-96-96-96zM840 768c32 0 56-24 56-56v-656c0-32-24-56-56-56h-784c-32 0-56 24-56 56v656c0 32 24 56 56 56h784zM634 372l198-212v520c0 14-12 24-26 24h-716c-14 0-24-10-26-24v-520l252 304c8 8 20 16 34 16s26-4 34-14l108-118 8-8c6-4 14-8 22-8s16 4 24 10l36 32c8 6 16 10 26 10s20-4 26-12z" />
<glyph unicode="&#xf148;" glyph-name="ion-images" d="M852 616c26-2 46-24 44-48l-28-526c-2-26-24-44-50-42l-660 32c-26 2-46 20-44 46l4 92-30-2c-24-2-44 14-46 36l-42 472c-2 22 14 42 38 44l592 48c24 2 44-14 46-36l10-108zM142 604c2 24 22 44 48 44l438-22-4 62h-2v2c-2 10-10 16-20 16l-522-44c-10 0-20-8-20-18v0-2l32-356 36 50zM810 132l20 396v2c0 12-10 20-22 20l-116 6-58 4-408 18c-12 0-22-8-24-18v0-2l-6-126-14-256v-14l12 14 204 218c8 8 16 12 28 12s22-6 28-14l86-98 6-6c4-4 12-8 20-8s10 2 18 6l34 24c8 6 14 8 22 8s18-4 22-10l54-66zM682 372c-40 0-70 30-70 70s32 70 70 70c40 0 70-32 70-70s-32-70-70-70z" />
<glyph unicode="&#xf149;" glyph-name="ion-information-circled" d="M896 390c4-248-194-450-442-454s-450 194-454 442 194 450 442 454 450-194 454-442zM448 672c-36 0-64-28-64-64s28-64 64-64 64 28 64 64-28 64-64 64zM536 106v22h-44v344h-132v-24h44v-320h-44v-22h176z" />
<glyph unicode="&#xf14a;" glyph-name="ion-information" horiz-adv-x="256" d="M192 0h64v-32h-256v32h64v480h-64v32h192v-512zM128 608c-54 0-96 42-96 96s42 96 96 96 96-42 96-96-42-96-96-96z" />
<glyph unicode="&#xf14b;" glyph-name="ion-ionic" horiz-adv-x="832" d="M752 630c50-68 80-154 80-246 0-230-186-416-416-416s-416 186-416 416 186 416 416 416c92 0 178-30 246-80 10 6 22 10 36 10 36 0 64-28 64-64 0-14-4-26-10-36zM688 112c36 36 62 76 82 122 20 48 30 98 30 150s-10 102-30 150c-12 26-26 52-42 76-8-4-20-8-30-8-36 0-64 28-64 64 0 10 4 22 8 30-24 16-50 30-76 42-48 20-98 30-150 30s-102-10-150-30c-46-20-86-46-122-82s-62-76-82-122c-20-48-30-98-30-150s10-102 30-150c20-46 46-86 82-122s76-62 122-82c48-20 98-30 150-30s102 10 150 30c46 20 86 46 122 82zM224 384c0 128 64 192 192 192s192-64 192-192-64-192-192-192-192 64-192 192z" />
<glyph unicode="&#xf1f9;" glyph-name="ion-ipad" horiz-adv-x="576" d="M0 750c0 10 8 18 18 18h540c10 0 18-8 18-18v-732c0-10-8-18-18-18h-540c-10 0-18 8-18 18v732zM288 20c16 0 28 12 28 28s-14 28-28 28c-16 0-28-12-28-28s12-28 28-28zM64 658v-550c0-8 6-12 12-12h422c6 0 14 4 14 12v550c0 8-8 14-14 14h-422c-6 0-12-6-12-14z" />
<glyph unicode="&#xf1fa;" glyph-name="ion-iphone" horiz-adv-x="384" d="M336 768c26 0 48-22 48-48v-672c0-26-22-48-48-48h-288c-26 0-48 22-48 48v672c0 26 22 48 48 48h288zM160 696v0c0-4 4-8 8-8h48c4 0 8 4 8 8v0c0 4-4 8-8 8h-48c-4 0-8-4-8-8zM136 704c-4 0-8-4-8-8s4-8 8-8 8 4 8 8-4 8-8 8zM192 32c18 0 32 14 32 32s-14 32-32 32-32-14-32-32 14-32 32-32zM352 128v512h-320v-512h320z" />
<glyph unicode="&#xf1fb;" glyph-name="ion-ipod" horiz-adv-x="448" d="M224 274c36 0 64-28 64-64s-28-64-64-64-64 28-64 64 28 64 64 64zM392 768c30 0 56-24 56-56v-656c0-32-26-56-56-56h-336c-30 0-56 24-56 56v656c0 32 26 56 56 56h336zM224 64c80 0 144 64 144 144s-64 144-144 144-144-64-144-144 64-144 144-144zM384 442v236c-2 14-12 24-24 26h-272c-14-2-24-14-24-30v-228c0-16 12-30 28-30h262c16 0 28 10 30 26z" />
<glyph unicode="&#xf1fc;" glyph-name="ion-laptop" d="M960 684v-524h-896v524c0 12 8 20 20 20h856c12 0 20-8 20-20zM896 224v416h-768v-416h768zM0 118v10h1024v-10c-140-40-232-54-512-54s-372 14-512 54z" />
<glyph unicode="&#xf1fd;" glyph-name="ion-leaf" horiz-adv-x="844" d="M824 138c36-6 20-82-10-78 0 0-42-2-126 24 0 0-32-38-78-60-52-24-236-66-394 76-216 194-240 708-200 666 172-180 394-94 540-212 110-88 176-254 154-384 0 0 10-16 114-32zM632 130c10 10 20 32 20 48-322 104-504 320-504 320s208-286 484-368z" />
<glyph unicode="&#xf1fe;" glyph-name="ion-link" horiz-adv-x="768" d="M384 480v0 0 0zM608 576c88 0 160-72 160-160v-64c0-88-72-160-160-160h-224c-66 0-120 40-146 96-8 20-14 40-14 64v64h96v-64c0-36 28-64 64-64h224c36 0 64 28 64 64v64c0 36-28 64-64 64v0h-32c-12 62-64 96-64 96h96zM532 480c8-20 12-42 12-64v-64h-96v64c0 36-28 64-64 64v0h-224c-36 0-64-28-64-64v-64c0-36 28-64 64-64h32c12-62 64-96 64-96h-96c-88 0-160 72-160 160v64c0 88 72 160 160 160h224c66 0 124-40 148-96z" />
<glyph unicode="&#xf1ff;" glyph-name="ion-location" horiz-adv-x="478" d="M238 768c132 0 240-108 240-240 0-230-240-528-240-528s-238 298-238 528c0 132 106 240 238 240zM238 412c62 0 114 50 114 112s-52 114-114 114-112-52-112-114 50-112 112-112z" />
<glyph unicode="&#xf200;" glyph-name="ion-locked" horiz-adv-x="768" d="M44-64c-24 0-44 20-44 44v424c0 24 20 44 44 44h44v62c0 84 34 174 86 230s128 92 210 92v0 0c82 0 158-36 210-92s86-146 86-230v-62h44c24 0 44-20 44-44v-424c0-24-20-44-44-44h-680zM194 510v-62h380v62c0 54-20 122-56 160v0 2c-36 38-84 58-134 58v0 0c-50 0-98-20-134-58v-2c-36-38-56-106-56-160z" />
<glyph unicode="&#xf201;" glyph-name="ion-loop" horiz-adv-x="668" d="M368 296v-116c98 16 172 100 172 204 0 32-8 60-20 88-6 12-10 24-18 34l94 86c2-2 4-6 6-8 42-56 66-124 66-200v-8c-4-144-94-262-222-308-24-8-52-16-78-18v-114l-204 180 88 78zM0 392c4 144 96 266 226 310 24 8 48 14 74 16v114l204-180-88-78-118-102 2 116c-98-16-172-102-172-204 0-32 8-62 20-90 6-12 10-22 18-32l-94-88c-2 4-4 6-6 10-40 56-66 126-66 200v8z" />
<glyph unicode="&#xf202;" glyph-name="ion-man" horiz-adv-x="336" d="M168 682c-42 0-74 34-74 76s32 74 74 74 74-32 74-74-32-76-74-76zM242 666c56 0 94-48 94-96v-228c0-44-64-44-64 0v210h-10v-572c0-56-82-62-86 0v330h-16v-330c-2-58-86-60-86 0v572h-12v-210c0-44-62-44-62 0v228c0 48 38 96 94 96h148z" />
<glyph unicode="&#xf203;" glyph-name="ion-map" d="M882 622c8-6 14-16 14-28v-562c0-12-4-22-14-28-4-2-10-4-14-4-6 0-12 0-16 4l-194 132-194-132c-10-6-20-6-30 0l-194 132-194-132c-10-6-20-6-30 0s-16 16-16 28v562c0 12 6 22 14 28l210 142c10 6 20 6 30 0l194-132 196 132c10 6 20 6 30 0zM206 190v484l-142-100v-484zM270 190l146-98v258l-8-22c-14 4-26 12-40 20l16 26c10-6 22-12 32-16v218l-146 98v-202c8-4 18-8 26-14l-20-26c-2 2-4 2-6 4v-246zM480 92l146 98v218c0-2-2-2-2-4l-12-12-24 22 12 12c6 6 10 14 16 20l10-10v238l-146-98v-224h14l6-30c-6 0-12-2-18-2h-2v-228zM832 92v484l-142 98v-176c6 2 10 2 16 4l8-32c-8-2-16-2-24-6v-274zM194 454c-6-2-22-10-28-14l-22 24c8 6 16 12 24 16 6 4 12 6 18 8l10-30c-4-2 2-2-2-4zM530 364c10 6 20 10 30 20l22-24c-12-12-24-20-38-26zM134 384v-2l-30 10v2c4 14 8 26 18 40l26-18c-8-10-10-20-14-32zM332 420c6-8 14-16 22-22l-22-24c-8 8-16 18-24 26l-6 6 24 22c2-2 4-6 6-8zM752 436l-22 24 20 20-20 20 22 24 20-22 22 22 22-24-20-20 20-20-22-24-22 22z" />
<glyph unicode="&#xf204;" glyph-name="ion-mic-a" horiz-adv-x="576" d="M0 420c0 20 18 38 40 38s38-18 38-38v-28c0-56 24-106 62-144s90-62 148-62 110 24 148 62 62 88 62 144v28c0 20 16 38 38 38s40-18 40-38v-28c0-132-92-240-216-272-2 0-6-2-8-2-12-4-20-14-24-26v-116c0-22-18-40-40-40v0c-22 0-40 18-40 40v116c-4 12-12 22-24 26-2 0-6 2-8 2-124 32-216 140-216 272v28zM134 680c0 84 68 152 154 152s156-68 156-152v-288c0-84-70-150-156-150s-154 66-154 150v288z" />
<glyph unicode="&#xf205;" glyph-name="ion-mic-b" horiz-adv-x="320" d="M160 832c70 0 130-46 152-118 12-36 8-90 4-110s-16-40-28-56c-6-8-14-14-22-18-2 0-2-2-4-2-6-2-12-4-20-6-24-6-50-10-78-10v0h-4c-28 0-58 4-82 10-8 2-14 4-20 6-2 0-2 2-4 2-8 4-16 10-22 18-12 16-24 36-28 56s-8 74 4 110c22 72 82 118 152 118zM238 494c12 0 24-10 24-24v-4c-10-134-36-482-38-504 0 0-6-26-64-26v0c-58 0-64 26-64 26-2 22-26 370-36 504v4c0 14 10 24 22 24h2c2 0 2-2 4-2 4 0 8-2 12-2 18-4 42-4 62-4s40 0 58 4c4 0 8 2 12 2 2 0 2 2 4 2h2zM180 332v66c0 12-8 22-20 22s-20-10-20-22v-66c0-12 8-22 20-22s20 10 20 22z" />
<glyph unicode="&#xf206;" glyph-name="ion-mic-c" horiz-adv-x="512" d="M402 832c60 0 110-46 110-104v-56h-118v-74h118v-86h-118v-74h118v-86h-118v-74h118v-84c0-58-50-104-110-104h-60v-154h-172v154h-60c-60 0-110 46-110 104v84h304v74h-304v86h304v74h-304v86h304v74h-304v56c0 58 50 104 110 104h292z" />
<glyph unicode="&#xf207;" glyph-name="ion-minus-circled" d="M448 832c248 0 448-200 448-448s-200-448-448-448-448 200-448 448 200 448 448 448zM704 352v64h-512v-64h512z" />
<glyph unicode="&#xf208;" glyph-name="ion-minus-round" horiz-adv-x="768" d="M706 448c34 0 62-28 62-64s-28-64-62-64h-644c-34 0-62 28-62 64s28 64 62 64h644z" />
<glyph unicode="&#xf209;" glyph-name="ion-minus" horiz-adv-x="768" d="M0 320v128h768v-128h-768z" />
<glyph unicode="&#xf20a;" glyph-name="ion-monitor" d="M874 768c12 0 22-10 22-22v-532c0-12-10-22-22-22h-852c-12 0-22 10-22 22v532c0 12 10 22 22 22h852zM832 256v448h-768v-448h768zM540 0h-184c-56 0-84 6-60 24s60 32 60 46c0 8 2 90 2 90h180s2-82 2-90c0-14 36-28 60-46s-4-24-60-24z" />
<glyph unicode="&#xf20b;" glyph-name="ion-more" horiz-adv-x="768" d="M100 288c-56 0-100 42-100 96 0 52 44 96 100 96s100-44 100-96c0-54-44-96-100-96zM384 288c-56 0-100 42-100 96 0 52 44 96 100 96s100-44 100-96c0-54-44-96-100-96zM668 288c-56 0-100 42-100 96 0 52 44 96 100 96s100-44 100-96c0-54-44-96-100-96z" />
<glyph unicode="&#xf20c;" glyph-name="ion-music-note" horiz-adv-x="768" d="M724 832c24 0 44-18 44-42v-606s-6-86-24-110v0c-18-30-50-42-86-42h-74c-56 0-104 40-104 96s48 96 104 96h120v384l-416-76v-464c0-16-6-54-26-82-2-4-4-6-6-10 0-2-2-2-4-4v0c-18-22-46-36-76-36h-74c-56 0-102 40-102 96s46 96 102 96v0h122v572c2 28 26 56 54 64l436 66s6 2 10 2z" />
<glyph unicode="&#xf20d;" glyph-name="ion-navicon-round" horiz-adv-x="768" d="M706 448c34 0 62-28 62-64s-28-64-62-64h-644c-34 0-62 28-62 64s28 64 62 64h644zM706 704c34 0 62-28 62-64s-28-64-62-64h-644c-34 0-62 28-62 64s28 64 62 64h644zM706 192c34 0 62-28 62-64s-28-64-62-64h-644c-34 0-62 28-62 64s28 64 62 64h644z" />
<glyph unicode="&#xf20e;" glyph-name="ion-navicon" horiz-adv-x="640" d="M0 350v64h640v-64h-640zM0 542v64h640v-64h-640zM0 158v64h640v-64h-640z" />
<glyph unicode="&#xf20f;" glyph-name="ion-paperclip" horiz-adv-x="320" d="M298 586c12 0 22-10 22-24v-390c0-56-20-98-48-126-30-30-72-46-112-46-80 0-160 62-160 176v468c0 48 22 88 58 108s78 22 114 0 58-60 58-108l-2-450c0-26-6-48-18-64s-32-24-50-24c-34 0-68 30-68 88v346c0 12 12 24 24 24s22-12 22-24v-346c0-28 10-42 22-42 4 0 10 4 14 8 6 8 10 20 10 34v450c0 30-12 56-34 68s-48 12-70 0-34-38-34-68v-468c0-88 58-128 114-128s114 38 114 126v390c0 12 12 22 24 22z" />
<glyph unicode="&#xf210;" glyph-name="ion-pause" horiz-adv-x="512" d="M192 24c0-14-10-24-24-24h-144c-14 0-24 10-24 24v720c0 14 10 24 24 24h144c14 0 24-10 24-24v-720zM488 768c14 0 24-10 24-24v-720c0-14-10-24-24-24h-144c-14 0-24 10-24 24v720c0 14 10 24 24 24h144z" />
<glyph unicode="&#xf211;" glyph-name="ion-person-add" d="M794 240h-84v102h-102v84h102v102h84v-102h102v-84h-102v-102zM768 0h-768s0 52 4 80c4 22 34 50 162 98 126 46 120 24 120 110 0 56-28 22-46 128-8 42-12 14-28 80-8 34 6 38 4 54s-4 32-8 66c-4 42 36 152 176 152s180-110 176-152c-4-34-6-50-8-66s12-20 4-54c-16-66-20-38-28-80-18-106-46-72-46-128 0-86-6-64 120-110 128-48 158-76 162-98 4-28 4-80 4-80z" />
<glyph unicode="&#xf212;" glyph-name="ion-person-stalker" d="M786 246c84-32 104-52 106-66 4-18 4-180 4-180h-196c0 36 0 142-2 154-2 20-2 58-110 100-16 6-28 10-38 14 36 16 30 30 30 56 0 38-18 22-30 94-4 28-8 10-18 56-6 24 2 24 2 36s-2 20-4 44c-2 28 22 104 114 104s118-76 116-104c-2-24-4-32-4-44-2-12 8-12 2-36-10-46-14-28-18-56-12-72-32-56-32-94 0-58-4-46 78-78zM650 0h-650s0 130 4 154c4 20 30 44 138 86 108 40 100 34 100 110 0 48-24 16-40 108-6 36-10 14-22 72-6 30 4 32 2 46s-4 28-6 58c-4 38 30 134 148 134s154-98 150-134c-2-30-4-44-6-58s10-16 4-46c-12-58-18-36-24-72-16-92-40-60-40-108 0-64-4-72 62-96 12-4 22-8 38-14 108-42 134-66 138-86 2-12 4-56 4-94v-60z" />
<glyph unicode="&#xf213;" glyph-name="ion-person" horiz-adv-x="768" d="M768 0h-768s0 52 4 80c4 22 34 50 162 98 126 46 120 24 120 110 0 56-28 22-46 128-8 42-12 14-28 80-8 34 6 38 4 54s-4 32-8 66c-4 42 36 152 176 152s180-110 176-152c-4-34-6-50-8-66s12-20 4-54c-16-66-20-38-28-80-18-106-46-72-46-128 0-86-6-64 120-110 128-48 158-76 162-98 4-28 4-80 4-80z" />
<glyph unicode="&#xf214;" glyph-name="ion-plane" d="M500 272c0-14 2-138-12-204-2-8 6-8 10-14l102-66c4-4 6-16 6-16l2-36-136 32-24-64-24 64-136-32 2 36s0 12 4 16l104 66c4 6 12 6 10 14-14 66-12 190-12 204s-16 10-16 10l-124-26-256-98c0 46 4 52 18 62l366 262s10 126 10 226c0 48 24 156 54 156s54-108 54-156c0-106 10-226 10-226l366-262c12-8 18-14 18-62l-256 98-124 26s-16 4-16-10z" />
<glyph unicode="&#xf215;" glyph-name="ion-play" horiz-adv-x="640" d="M618 430c14-12 22-28 22-46s-8-34-22-46l-556-332c-8-4-14-6-22-6-22 0-40 18-40 40v0 688c0 22 18 40 40 40 8 0 16-2 22-6z" />
<glyph unicode="&#xf216;" glyph-name="ion-plus-circled" d="M448 832c248 0 448-200 448-448s-200-448-448-448-448 200-448 448 200 448 448 448zM704 352v64h-224v224h-64v-224h-224v-64h224v-224h64v224h224z" />
<glyph unicode="&#xf217;" glyph-name="ion-plus-round" horiz-adv-x="768" d="M706 448c34 0 62-28 62-64s-28-64-62-64h-258v-258c0-34-28-62-64-62s-64 28-64 62v258h-258c-34 0-62 28-62 64s28 64 62 64h258v258c0 34 28 62 64 62s64-28 64-62v-258h258z" />
<glyph unicode="&#xf218;" glyph-name="ion-plus" horiz-adv-x="768" d="M768 448v-128h-320v-320h-128v320h-320v128h320v320h128v-320h320z" />
<glyph unicode="&#xf219;" glyph-name="ion-pound" d="M186 192h-186v108h202l26 168h-198v108h214l44 256h128l-44-256h212l44 256h126l-44-256h186v-108h-204l-24-168h198v-108h-214l-44-256h-126l44 256h-214l-44-256h-126zM354 468l-24-168h212l24 168h-212z" />
<glyph unicode="&#xf21a;" glyph-name="ion-printer" d="M784 640c56 0 112-38 112-110v-262c0-62-56-108-112-108h-80v-224h-512v224h-80c-56 0-112 48-112 124v246c0 76 56 110 112 110h80v128h512v-128h80zM672-32v352h-448v-352h448zM672 640v96h-448v-96h448zM768 512v32h-34v-32h34zM256 224v32h384v-32h-384zM256 128v32h384v-32h-384zM256 32v32h384v-32h-384z" />
<glyph unicode="&#xf21b;" glyph-name="ion-record" horiz-adv-x="832" d="M416-32c-230 0-416 186-416 416s186 416 416 416 416-186 416-416-186-416-416-416z" />
<glyph unicode="&#xf21c;" glyph-name="ion-refresh" d="M704 192l-208 224h148c-14 130-128 224-260 224-142 0-256-114-256-256s114-256 256-256c56 0 106 16 150 48l12 10 86-92-14-12c-68-52-148-82-234-82-182 0-334 128-374 298v0c0 2-2 4-2 6v6s-2 4-2 6v2c0 2-2 6-2 8v0c-2 12-4 26-4 38v40c0 12 2 26 4 38v0c0 2 2 6 2 8v2c0 2 2 2 2 4v8c0 2 2 4 2 6v0c40 170 192 298 374 298v0 0c22 0 42-2 62-6h8c114-20 212-94 266-192 26-46 42-98 46-154h130z" />
<glyph unicode="&#xf21d;" glyph-name="ion-reply-all" horiz-adv-x="832" d="M514 512c306 0 318-416 318-416-102 186-182 204-318 204v-184l-304 268 304 288v-160zM0 384l288 272v-114l-164-158 164-136v-116z" />
<glyph unicode="&#xf21e;" glyph-name="ion-reply" horiz-adv-x="768" d="M768 96c-106 186-244 204-448 204v-184l-320 268 320 288v-160c374 0 448-416 448-416z" />
<glyph unicode="&#xf21f;" glyph-name="ion-search" horiz-adv-x="768" d="M762 122c8-8 8-20 0-28l-86-88c-4-4-10-6-16-6s-10 2-14 6l-168 172c-50-30-104-46-160-46-174 0-318 142-318 318s144 318 318 318 316-142 316-318c0-54-14-108-42-156zM318 644c-106 0-194-86-194-194s88-194 194-194 192 86 192 194-86 194-192 194z" />
<glyph unicode="&#xf220;" glyph-name="ion-share" horiz-adv-x="768" d="M576 140v118l76 62v-218c0-22-16-38-38-38h-576c-22 0-38 18-38 38v436c0 22 16 38 38 38h240c-58-36-86-76-86-76h-116v-360h500zM512 448c-168 0-232-48-320-192 0 0 10 328 320 328v120l256-192-256-192v128z" />
<glyph unicode="&#xf221;" glyph-name="ion-shuffle" d="M676 534c-104 0-166-86-240-184-82-110-176-240-342-240h-94v126h94c104 0 168 94 242 192 82 110 174 232 340 232h58v108l162-162-162-168v96h-58zM242 460c-42 42-84 70-148 72-68 2-94 0-94 0v126h94c96 0 166-40 226-96-20-24-38-48-56-72-8-10-14-20-22-30zM734 236v94l162-168-162-162v108h-58c-100 0-174 46-234 106 24 28 44 56 64 82 4 6 10 12 14 18 44-48 92-78 156-78h58z" />
<glyph unicode="&#xf222;" glyph-name="ion-skip-backward" horiz-adv-x="768" d="M24 704h16c14 0 24-10 24-24v-226l374 244c4 4 10 6 16 6 16 0 32-14 32-34v-126l236 156c4 4 10 4 16 4 16 0 30-14 30-34v-572c0-20-14-34-30-34-6 0-10 2-16 6l-236 156v-128c0-20-16-34-32-34-6 0-10 2-16 6l-374 244v-226c0-14-10-24-24-24h-16c-14 0-24 10-24 24v592c0 14 10 24 24 24z" />
<glyph unicode="&#xf223;" glyph-name="ion-skip-forward" horiz-adv-x="768" d="M744 704c14 0 24-10 24-24v-592c0-14-10-24-24-24h-16c-14 0-24 10-24 24v226l-374-244c-6-4-10-6-16-6-16 0-30 14-30 34v128l-238-156c-6-4-10-6-16-6-16 0-30 14-30 34v572c0 20 14 34 30 34 6 0 12 0 16-4l238-156v126c0 20 14 34 30 34 6 0 12-2 16-6l374-244v226c0 14 10 24 24 24h16z" />
<glyph unicode="&#xf224;" glyph-name="ion-social-android-outline" horiz-adv-x="704" d="M544 480h-384v-298h80v-134c0-8 8-16 16-16s16 8 16 16v134h162v-134c0-4 2-8 6-12h2c2-2 4-4 8-4h2c8 0 14 8 14 16v134h78v298zM576 512v0-332c0-14-6-30-20-30h-58v-102c0-26-20-48-46-48v0h-2c-12 0-22 4-30 10-10 8-18 22-18 38v102h-98v-102c0-26-22-48-48-48s-48 22-48 48v102h-56c-14 0-24 16-24 30v332h448zM656 512c-8 0-16-8-16-16v-192c0-8 8-16 16-16s16 8 16 16v192c0 8-8 16-16 16zM656 544v0c26 0 48-22 48-48v-192c0-26-22-48-48-48s-48 22-48 48v192c0 26 22 48 48 48zM48 512c-8 0-16-8-16-16v-192c0-8 8-16 16-16s16 8 16 16v192c0 8-8 16-16 16zM48 544v0c26 0 48-22 48-48v-192c0-26-22-48-48-48s-48 22-48 48v192c0 26 22 48 48 48zM350 708c-28 0-54-6-76-12l-20-8c-56-24-80-74-88-112h372c-8 36-30 86-88 112l-20 8c-24 8-50 12-78 12v0 0h-2zM210 768v0h2l38-46c26 10 60 18 100 18h2c40 0 72-8 100-18l40 46s2-2 4-2c2-2 4-6 4-6l-38-44c96-42 112-142 114-172h-448c2 30 18 132 114 174l-38 44c0 2 2 2 4 4zM254 618c-14 0-28 12-28 26s12 28 28 28c14 0 26-14 26-28s-10-26-26-26zM450 618c-14 0-26 12-26 26s10 28 26 28c14 0 26-14 26-28s-12-26-26-26z" />
<glyph unicode="&#xf225;" glyph-name="ion-social-android" horiz-adv-x="704" d="M128 360v152h448v-332c0-14-8-28-22-28h-56v-104c0-26-22-48-48-48v0h-2c-12 0-20 4-28 10-10 8-18 22-18 38v104h-98v-104c0-26-22-48-48-48s-48 22-48 48v104h-58c-14 0-22 14-22 28v180zM656 544c26 0 48-22 48-48v-192c0-26-22-48-48-48s-48 22-48 48v192c0 26 22 48 48 48zM48 544c26 0 48-22 48-48v-192c0-26-22-48-48-48s-48 22-48 48v192c0 26 22 48 48 48zM462 718c96-42 112-144 114-174h-448c2 30 16 132 112 174l-36 44c0 2 0 2 2 4s6 2 6 2l38-46c28 10 62 18 102 18s72-8 100-18l40 46c0 2 2 0 4-2l4-4zM254 618c16 0 26 12 26 26s-12 28-26 28c-16 0-28-14-28-28s14-26 28-26zM450 618c14 0 28 12 28 26s-14 28-28 28c-16 0-26-14-26-28s12-26 26-26z" />
<glyph unicode="&#xf226;" glyph-name="ion-social-apple-outline" horiz-adv-x="640" d="M476 556c-30 0-52-8-74-16-20-8-42-16-70-16s-50 8-74 16c-22 8-44 16-68 16-22 0-46-6-68-20-24-14-46-36-62-62-24-36-32-94-26-154 6-68 32-138 70-198 26-42 60-90 100-90h2c16 0 26 6 40 12 20 10 46 20 88 20v0c42 0 68-10 88-20 14-6 24-12 38-12v0c44 0 88 70 104 96 16 24 24 40 34 62-24 14-44 32-60 56-20 30-34 66-36 104-2 36 4 74 20 106 12 24 28 44 48 60-28 26-62 40-94 40zM476 588v0c50 0 104-28 142-78-126-72-106-256 22-306-18-40-26-56-48-92-32-50-74-112-130-112h-2c-48 0-62 32-126 32v0c-66 0-80-32-128-32h-2c-56 0-96 56-128 106-88 138-96 300-42 386 38 60 100 96 156 96 58 0 94-32 142-32 46 0 76 32 144 32zM428 728c-22-10-42-26-56-44-8-10-18-26-26-46-2-6-4-12-4-18 22 8 42 22 56 42 8 10 24 36 30 66zM460 768v0c6-46-12-92-36-124-26-34-70-60-112-60h-2c-8 44 12 88 36 120 28 34 74 62 114 64z" />
<glyph unicode="&#xf227;" glyph-name="ion-social-apple" horiz-adv-x="640" d="M476 588v0c50 0 104-28 142-78-126-72-106-256 22-306-18-40-26-56-48-92-32-50-74-112-130-112h-2c-48 0-62 32-126 32v0c-66 0-80-32-128-32h-2c-56 0-96 56-128 106-88 138-96 300-42 386 38 60 100 96 156 96 58 0 94-32 142-32 46 0 76 32 144 32zM460 768v0c6-46-12-92-36-124-26-34-70-60-112-60h-2c-8 44 12 88 36 120 28 34 74 62 114 64z" />
<glyph unicode="&#xf228;" glyph-name="ion-social-buffer-outline" horiz-adv-x="768" d="M14 568c-18 8-18 22 0 30l338 164c8 4 20 6 32 6s24-2 32-6l338-164c18-8 18-22 0-30l-338-164c-8-4-20-6-32-6s-24 2-32 6zM366 732l-312-150 312-150c4-2 10-2 18-2s14 0 18 2l312 150-312 150c-4 2-10 4-18 4s-14-2-18-4zM754 400c18-8 18-24 0-32l-338-162c-8-4-20-8-32-8s-24 4-32 8l-338 162c-18 8-18 24 0 32 0 0 54 26 66 32 10 6 14 6 26 0s246-120 246-120c8-4 20-6 32-6s24 2 32 6c0 0 242 118 250 122s10 4 18 0 70-34 70-34zM402 234l312 150-38 18-246-118c-12-6-30-10-46-10s-34 4-46 10l-246 118-38-18 312-150c4-2 10-4 18-4s14 2 18 4zM754 200c18-8 18-22 0-30l-338-164c-8-4-20-6-32-6s-24 2-32 6l-338 164c-18 8-18 22 0 30 0 0 54 28 66 34 10 6 14 4 26-2s246-118 246-118c8-4 20-6 32-6s24 2 32 6c0 0 242 116 250 120s10 4 18 0 70-34 70-34zM402 36l312 150-38 18-246-120c-12-6-30-8-46-8s-34 2-46 8l-246 120-38-18 312-150c4-2 10-4 18-4s14 2 18 4z" />
<glyph unicode="&#xf229;" glyph-name="ion-social-buffer" horiz-adv-x="768" d="M14 568c-18 8-18 22 0 30l338 164c8 4 20 6 32 6s24-2 32-6l338-164c18-8 18-22 0-30l-338-164c-8-4-20-6-32-6s-24 2-32 6zM754 400c18-8 18-24 0-32l-338-162c-8-4-20-8-32-8s-24 4-32 8l-338 162c-18 8-18 24 0 32 0 0 54 26 66 32 10 6 14 6 26 0s246-120 246-120c8-4 20-6 32-6s24 2 32 6c0 0 242 118 250 122s10 4 18 0 70-34 70-34zM754 200c18-8 18-22 0-30l-338-164c-8-4-20-6-32-6s-24 2-32 6l-338 164c-18 8-18 22 0 30 0 0 54 28 66 34 10 6 14 4 26-2s246-118 246-118c8-4 20-6 32-6s24 2 32 6c0 0 242 116 250 120s10 4 18 0 70-34 70-34z" />
<glyph unicode="&#xf22a;" glyph-name="ion-social-designernews-outline" d="M518 604v-106l-130 206zM594 704l302-238v-402h-496l-400 312h126c92 0 154 66 154 164 0 40-10 74-30 102l-6 6 74-58v-214h82l-4 196 126-196h72v328zM864 96v356l-238 184v2-294h-122l-8 16-66 100 2-84v-32h-146v90c-6-12-14-24-24-34-16-18-36-32-60-42s-48-14-76-14h-32l318-248h452zM118 596h-8v-114h8c16 0 26 4 34 12 10 12 12 30 12 44 0 52-24 58-46 58zM118 628v0c50 0 78-32 78-90 0-56-28-88-80-88h-38v178h40z" />
<glyph unicode="&#xf22b;" glyph-name="ion-social-designernews" d="M516 606l2-106-128 204zM594 704l302-236v-404h-496l-400 314h126c92 0 154 66 154 164 0 40-10 74-30 102l-6 6 74-58v-214h80l-4 198 128-198h72v326zM196 540c0-56-28-88-80-88h-38v178h38c52 0 80-32 80-90z" />
<glyph unicode="&#xf22c;" glyph-name="ion-social-dribbble-outline" horiz-adv-x="768" d="M384 768c212 0 384-172 384-384s-172-384-384-384-384 172-384 384 172 384 384 384zM628 592c-34-50-94-94-170-128 10-20 18-40 26-62 66 6 150 8 220 4-4 70-32 136-76 186zM384 704c-28 0-52-4-78-10 46-46 86-106 124-174 68 28 124 66 158 110-56 46-126 74-204 74zM240 668c-82-42-142-116-166-206h50c88 0 170 12 242 34-38 68-80 126-126 172zM64 400v-16c0-80 30-156 80-212 48 90 134 166 244 212 8 4 16 6 28 8-6 16-12 32-20 48-80-26-176-40-276-42-18 0-38 2-56 2zM384 64c40 0 78 6 114 20-6 50-16 106-30 158-8 34-20 66-32 98-14-4-26-8-34-12-96-44-172-112-214-196 54-42 122-68 196-68zM556 116c80 52 136 134 146 232-60 4-136 6-198 0 8-24 18-50 24-76 14-54 22-104 28-156z" />
<glyph unicode="&#xf22d;" glyph-name="ion-social-dribbble" horiz-adv-x="768" d="M384 768c212 0 384-172 384-384s-172-384-384-384-384 172-384 384 172 384 384 384zM384 64c176 0 320 144 320 320s-144 320-320 320-320-144-320-320 144-320 320-320zM484 402c-8 22-16 42-26 62 50 22 94 48 126 78 30-38 52-84 56-134-52 0-110-2-156-6zM542 584c-30-24-68-46-112-64-24 44-48 82-76 118 10 2 20 2 30 2 60 0 114-22 158-56zM284 620c30-36 56-78 82-124-68-20-144-32-226-34 22 72 76 130 144 158zM638 352c-8-66-42-126-92-166-6 28-10 56-18 86-6 26-16 52-24 76 42 4 90 6 134 4zM388 384c-86-36-158-92-208-156-32 44-52 98-52 156v14c98 2 190 16 268 42 8-16 14-32 20-48-12-2-20-4-28-8zM438 340c12-32 22-64 30-98 8-30 14-62 20-92-32-14-68-22-104-22-62 0-118 22-162 58 44 60 106 108 180 142 8 4 22 8 36 12z" />
<glyph unicode="&#xf22e;" glyph-name="ion-social-dropbox-outline" horiz-adv-x="768" d="M226 742l158-132-228-142-156 126zM54 590l104-84 172 106-106 92zM612 470l156-126-156-102v-78l-228-138-228 136v78l-156 104 156 126 228-142-158-132-38 24v-40l196-118 196 118v40l-38-24-158 132zM158 434l-104-88 170-110 106 88zM438 324l106-88 170 112-104 86zM768 594l-156-126-228 142 158 132zM438 610l172-104 104 84-170 112z" />
<glyph unicode="&#xf22f;" glyph-name="ion-social-dropbox" horiz-adv-x="768" d="M226 742l158-132-228-142-156 126zM0 344l156 124 228-140-158-132zM384 328l228 140 156-124-226-148zM768 594l-156-126-228 142 158 132zM384 300l160-132 68 44v-50l-228-136-228 136v50l68-44z" />
<glyph unicode="&#xf230;" glyph-name="ion-social-facebook-outline" horiz-adv-x="384" d="M256 512h128l-16-128h-112v-384h-166v384h-90v128h90v86c0 108 46 170 182 170h112v-128h-68c-54 0-60-18-60-52v-76zM340 416l8 64h-124v108c0 20 2 42 18 60 20 22 50 24 74 24h36v64h-80c-56 0-98-12-120-36-20-22-30-54-30-102v-118h-90v-64h90v-384h102v384h116z" />
<glyph unicode="&#xf231;" glyph-name="ion-social-facebook" horiz-adv-x="384" d="M256 512h128l-16-128h-112v-384h-166v384h-90v128h90v86c0 108 46 170 182 170h112v-128h-68c-54 0-60-18-60-52v-76z" />
<glyph unicode="&#xf232;" glyph-name="ion-social-github-outline" d="M448 832c248 0 448-206 448-460 0-202-128-376-306-436h-8c-16 0-24 14-24 24 0 16 2 62 2 124 0 42-16 72-32 86 100 12 206 50 206 226 0 50-18 92-46 124 4 12 20 58-4 122h-10c-16 0-54-6-114-48-36 10-74 16-112 16s-76-6-112-16c-60 42-98 48-114 48h-10c-24-64-8-110-4-122-28-32-46-74-46-124 0-176 104-214 204-226-12-12-24-32-28-62-12-6-32-12-52-12-26 0-56 10-78 50 0 0-26 44-70 48v0c-4 0-42 0-2-28 0 0 30-16 50-68 0 0 20-66 106-66 14 0 28 0 44 4v-78c0-10-6-22-22-22h-8c-178 60-306 232-306 436 0 254 200 460 448 460zM292 0c-30 0-56 8-76 18 28-20 56-34 88-46v28h-12zM314 146c-32 8-70 20-104 48 12-12 22-22 26-32 14-24 28-34 50-34 8 0 18 2 24 4 2 4 2 10 4 14zM694 28c34 26 64 56 90 92 52 74 80 160 80 252 0 58-10 116-32 168-20 50-52 96-90 136s-82 68-132 90c-52 22-106 34-162 34s-110-12-162-34c-50-22-94-50-132-90s-70-84-90-136c-22-52-32-110-32-168 0-92 28-178 80-252 20-28 44-54 70-76-14 16-22 32-26 44-14 36-30 48-34 50h-4v2c-10 6-40 26-30 56 6 18 24 30 50 30h2c26-2 48-12 64-26-42 38-74 96-74 196 0 48 14 94 42 132-6 26-12 68 10 124l6 16 14 4c4 0 10 2 20 2 24 0 62-6 120-44 34 8 70 12 106 12v0 0c36 0 72-4 106-12 58 38 96 44 120 44 10 0 16-2 20-2l14-4 6-14c22-54 16-100 10-126 28-38 42-82 42-132 0-184-110-234-184-250 6-16 10-36 10-60v-114c36 14 70 32 102 56z" />
<glyph unicode="&#xf233;" glyph-name="ion-social-github" d="M448 832c248 0 448-206 448-460 0-202-128-376-306-436h-8c-16 0-24 14-24 24 0 16 2 62 2 124 0 42-16 72-32 86 100 12 206 50 206 226 0 50-18 92-46 124 4 12 20 58-4 122h-10c-16 0-54-6-114-48-36 10-74 16-112 16s-76-6-112-16c-60 42-98 48-114 48h-10c-24-64-8-110-4-122-28-32-46-74-46-124 0-176 104-214 204-226-12-12-24-32-28-62-12-6-32-12-52-12-26 0-56 10-78 50 0 0-26 44-70 48v0c-4 0-42 0-2-28 0 0 30-16 50-68 0 0 20-66 106-66 14 0 28 0 44 4v-78c0-10-6-22-22-22h-8c-178 60-306 232-306 436 0 254 200 460 448 460z" />
<glyph unicode="&#xf234;" glyph-name="ion-social-googleplus-outline" d="M384 732c24-20 72-60 72-136 0-74-42-110-86-144-14-14-30-26-30-48s16-36 28-44l36-28c46-38 86-72 86-142 0-94-94-190-270-190-148 0-220 70-220 144 0 36 20 88 80 124 64 38 150 42 196 46-14 18-32 36-32 68 0 18 6 28 10 40-12 0-22-2-32-2-108 0-170 80-170 158 0 46 20 96 64 134 58 48 128 56 184 56h212l-66-36h-62zM310 284c-8 0-14 2-24 2s-64-2-108-16c-22-8-88-32-88-104s72-124 182-124c98 0 150 48 150 110 0 52-34 78-112 132zM340 476c24 24 26 56 26 74 0 72-44 184-130 184-26 0-56-12-72-32-18-22-22-48-22-74 0-68 40-180 128-180 26 0 54 12 70 28zM896 612v-36h-156v-162h-36v162h-160v36h160v156h36v-156h156z" />
<glyph unicode="&#xf235;" glyph-name="ion-social-googleplus" d="M420 344c44-36 90-72 90-146 0-98-94-198-278-198-160 0-232 78-232 154 0 20 6 84 84 130 54 32 122 42 170 46-8 14-16 30-16 52 0 8 0 14 2 20h-8c-38 0-92 8-134 52-30 30-48 72-48 114 0 52 26 106 70 142v0c64 50 138 58 188 58h268l-120-66h-26c22-26 46-62 46-116 0-80-50-118-90-148v-2c-12-12-22-20-22-34 0-12 8-20 20-30v0zM170 616c0-26 8-66 28-102 14-24 42-54 82-54 20 0 42 8 56 22 20 20 20 50 20 60 0 36-12 74-30 106-16 26-40 56-80 56-22 0-46-10-58-26-12-14-18-36-18-62zM412 160c0 40-26 62-100 112-6 0-8 2-16 2-12 0-62-4-100-16-32-12-76-32-76-84 0-62 64-102 160-102 82 0 132 34 132 88zM740 612h156v-68h-156v-162h-68v162h-160v68h160v156h68v-156z" />
<glyph unicode="&#xf236;" glyph-name="ion-social-hackernews-outline" horiz-adv-x="768" d="M704 704h-640v-640h640v640zM768 768v0-768h-768v768h768zM466 578h90l-128-240v-144h-80v144l-132 240h94l80-168z" />
<glyph unicode="&#xf237;" glyph-name="ion-social-hackernews" horiz-adv-x="768" d="M0 768h768v-768h-768v768zM428 338l128 240h-90l-76-168-80 168h-94l132-240v-144h80v144z" />
<glyph unicode="&#xf238;" glyph-name="ion-social-linkedin-outline" horiz-adv-x="768" d="M238 128v0h-110v342h110v-342zM186 522v0 0c-36 0-58 26-58 58 0 34 24 60 60 60s58-26 58-60c0-32-24-58-60-58zM514 478c72 0 126-48 126-150v-200h-110v188c0 44-16 74-56 74-30 0-48-20-56-40-4-8-4-18-4-28v-194h-110v342h110v-48c16 22 42 56 100 56zM706 768c36 0 62-26 62-60v-642c0-34-26-66-62-66h-640c-36 0-66 32-66 66v642c0 34 30 60 66 60h640zM700 64c2 0 4 2 4 4v632c0 2-2 4-4 4h-632s-4-2-4-4v-630s2-6 6-6h630z" />
<glyph unicode="&#xf239;" glyph-name="ion-social-linkedin" horiz-adv-x="768" d="M706 768c36 0 62-26 62-60v-642c0-34-26-66-62-66h-640c-36 0-66 32-66 66v642c0 34 30 60 66 60h640zM238 128v342h-110v-342h110zM186 522c36 0 60 26 60 58 0 34-22 60-58 60s-60-26-60-60c0-32 22-58 58-58v0zM640 128v200c0 102-54 150-126 150-58 0-84-34-100-56v48h-110v-342h110v194c0 10 0 20 4 28 8 20 26 40 56 40 40 0 56-30 56-74v-188h110z" />
<glyph unicode="&#xf23a;" glyph-name="ion-social-reddit-outline" horiz-adv-x="898" d="M518 320c0 42 22 62 64 62s64-20 64-62-22-64-64-64-64 22-64 64zM254 320c0 42 22 62 64 62s64-20 64-62-22-64-64-64-64 22-64 64zM898 394c0-40-18-72-54-90 2-10 2-18 2-28 0-76-38-142-116-196s-170-80-280-80-204 26-282 80-116 118-116 194c0 10 0 20 2 30-36 18-54 48-54 90 0 28 10 50 30 70s42 30 70 30c26 0 48-8 66-26 72 50 158 78 258 82h14l58 196 172-34c16 38 42 56 82 56 24 0 44-8 62-26s26-40 26-64-8-46-26-64-38-26-62-26-46 8-64 26-26 38-26 62l-138 28-48-154c100-4 188-32 258-82 20 18 42 26 68 26 18 0 32-6 48-14s28-20 36-36 14-32 14-50zM750 732c-8 0-16-2-22-4s-12-8-16-12-10-12-12-18-4-12-4-20c0-16 6-28 16-38s24-16 38-16c10 0 18 2 26 6s16 12 20 20 8 18 8 28c0 16-6 28-16 38s-24 16-38 16zM36 394c0-22 10-40 28-54 14 38 38 74 74 106-12 8-24 12-38 12-6 0-14 0-20-2s-12-6-18-10-10-8-14-14-8-12-10-18-2-12-2-20zM710 110c68 46 100 102 100 166v18c-2 12-6 24-10 36-12 32-30 60-60 86-10 8-20 18-30 24v0c-72 50-158 74-260 74s-190-24-262-74v0c-10-6-20-16-30-24-30-26-48-54-60-86-4-12-8-24-10-36v-18c0-64 32-120 100-166 72-50 160-74 262-74s188 24 260 74zM834 340c18 12 28 32 28 54 0 18-6 34-18 46s-26 18-44 18c-14 0-28-4-40-12 36-32 60-68 74-106zM578 180l26-24c-40-40-90-60-154-60s-116 20-156 60l26 24c32-32 76-48 130-48s96 16 128 48z" />
<glyph unicode="&#xf23b;" glyph-name="ion-social-reddit" horiz-adv-x="898" d="M898 394c0-40-22-74-54-90 2-10 2-18 2-28 0-152-178-276-398-276s-396 122-396 274c0 10 0 20 2 30-32 16-54 50-54 90 0 56 46 100 100 100 26 0 48-10 66-26 66 46 158 78 258 82h4l62 206 180-36c16 28 44 48 78 48v0h2c50 0 88-40 88-90s-38-90-88-90h-2c-46 0-84 34-88 80l-134 28-44-148c98-6 186-34 250-80 18 16 42 26 68 26 54 0 98-44 98-100zM68 354c10 30 30 58 58 82-8 6-18 10-30 10-28 0-50-22-50-50 0-18 8-34 22-42zM716 678c0-18 14-34 32-34s34 16 34 34-16 34-34 34-32-16-32-34zM254 320c0-36 28-64 64-64s64 28 64 64-28 62-64 62-64-26-64-62zM448 96c96 0 154 58 156 60l-26 24s-50-48-130-48c-82 0-128 48-128 48l-26-24c2-2 58-60 154-60zM582 256c36 0 64 28 64 64s-28 62-64 62-64-26-64-62 28-64 64-64zM830 352c14 10 22 26 22 44 0 28-22 50-50 50-12 0-22-4-30-10 28-24 48-54 58-84z" />
<glyph unicode="&#xf23c;" glyph-name="ion-social-rss-outline" horiz-adv-x="768" d="M112 224c62 0 112-50 112-112s-50-112-112-112-112 50-112 112 50 112 112 112zM112 32c44 0 80 36 80 80s-36 80-80 80-80-36-80-80 36-80 80-80zM0 512c280 0 512-232 512-512h-160c0 96-28 188-96 256s-160 96-256 96v160zM480 32c-4 52-16 104-38 154-24 56-60 108-104 152s-96 80-152 104c-50 20-102 32-154 36v-94c100-6 184-44 246-106s100-146 106-246h96zM0 768c424 0 768-344 768-768h-160c0 342-266 608-608 608v160zM454 456c112-112 178-262 186-424h96c-16 380-324 688-704 704v-96c162-8 310-72 422-184z" />
<glyph unicode="&#xf23d;" glyph-name="ion-social-rss" horiz-adv-x="768" d="M112 224c62 0 112-50 112-112s-50-112-112-112-112 50-112 112 50 112 112 112zM0 512c280 0 512-232 512-512h-160c0 96-28 188-96 256s-160 96-256 96v160zM0 768c424 0 768-344 768-768h-160c0 342-266 608-608 608v160z" />
<glyph unicode="&#xf23e;" glyph-name="ion-social-skype-outline" horiz-adv-x="768" d="M212 704c-82 0-148-66-148-146 0-26 8-50 20-72l12-22-4-24c-4-20-6-40-6-60 0-80 32-154 88-210s134-88 214-88c18 0 38 2 56 6l22 4 18-10c22-12 48-18 72-18 82 0 148 66 148 146 0 22-6 44-16 64l-10 20 6 22c4 20 6 42 6 64 0 80-32 154-88 210s-134 86-214 86c-18 0-36 0-52-4l-24-4-20 14c-24 14-52 22-80 22zM212 768v0c42 0 80-12 112-32 20 4 42 4 64 4 202 0 366-160 366-360 0-26-2-54-8-78 14-28 22-58 22-92 0-116-94-210-212-210-36 0-70 8-100 24-22-4-44-6-68-6-202 0-366 162-366 362 0 24 4 48 8 72-18 32-30 68-30 106 0 116 94 210 212 210zM576 208c-16-24-42-42-74-56s-72-20-116-20c-52 0-96 10-130 28-24 14-44 30-60 52s-24 44-24 66c0 14 6 24 16 34s22 14 38 14c12 0 24-4 32-12s14-16 20-30 14-26 22-36 16-18 30-24 32-10 54-10c30 0 56 8 74 20s26 26 26 44c0 14-4 26-14 34-10 10-22 18-38 22-16 6-40 10-68 16-38 8-70 18-96 28-26 12-48 26-64 46s-22 44-22 72 8 50 24 72c16 20 40 38 72 50 30 12 68 16 108 16 32 0 60-2 84-10s46-18 62-30 28-26 36-40 10-28 10-42c0-12-4-24-14-34s-22-16-38-16c-14 0-24 4-32 10-6 6-14 14-22 28-10 16-20 30-32 40s-34 16-62 16c-26 0-46-6-62-16s-24-22-24-36c0-8 4-14 8-20 6-6 12-12 22-16s20-10 30-12 26-6 50-12c30-6 56-12 80-20s46-16 64-28 30-26 40-44 16-40 16-64c0-30-10-56-26-80z" />
<glyph unicode="&#xf23f;" glyph-name="ion-social-skype" horiz-adv-x="768" d="M746 302c14-28 22-58 22-92 0-116-94-210-212-210-36 0-70 8-100 24-22-4-44-6-68-6-202 0-366 162-366 362 0 24 4 48 8 72-18 32-30 68-30 106 0 116 94 210 212 210 42 0 82-12 114-32 20 4 40 4 62 4 202 0 366-160 366-360 0-26-2-54-8-78zM576 208c18 24 24 50 24 80 0 24-4 46-14 64s-24 32-42 44-38 20-62 28-52 14-82 20c-24 6-40 10-50 12s-20 8-30 12-14 10-20 16c-4 6-8 12-8 20 0 14 6 26 22 36s38 14 64 14c28 0 50-4 62-14s22-24 32-40c8-14 16-22 22-28 8-6 18-10 32-10 16 0 26 6 36 16s16 22 16 34c0 14-4 28-12 42s-20 28-36 40-36 22-60 30-54 10-86 10c-40 0-76-4-106-16-32-12-56-30-72-50-16-22-24-44-24-72s6-52 22-72 38-34 64-46c26-10 58-20 96-28 28-6 52-10 68-16 16-4 28-12 38-22 10-8 14-20 14-34 0-18-8-34-26-46s-44-18-74-18c-22 0-40 4-54 10s-22 12-30 22-16 24-22 38-12 22-20 30-20 12-32 12c-16 0-28-4-38-14s-16-20-16-34c0-22 8-44 24-66s36-38 60-52c34-18 78-28 130-28 44 0 84 6 116 20s58 32 74 56z" />
<glyph unicode="&#xf240;" glyph-name="ion-social-tumblr-outline" horiz-adv-x="512" d="M386 104c42 0 84 12 126 40v-130c-36-16-68-30-96-36s-56-10-90-10c-38 0-70 4-100 14-28 10-56 24-76 42s-34 36-42 56-12 50-12 88v280h-96v116c32 10 60 28 84 48s38 42 52 70 22 74 28 118h124v-224h192v-128h-192v-202c0-48 2-80 8-94 4-14 14-24 28-32 18-12 38-16 62-16zM480 34v58c-30-12-62-20-94-20-30 0-56 6-80 20-20 12-34 30-42 50-4 12-8 34-8 104v234h192v64h-192v224h-64c-4-32-14-72-28-100-16-32-34-58-60-80-22-18-46-34-72-46v-62h96v-312c0-42 4-64 8-76 6-16 20-30 36-44 18-16 38-28 62-36 26-8 58-12 92-12 32 0 56 4 82 10 22 4 46 12 72 24z" />
<glyph unicode="&#xf241;" glyph-name="ion-social-tumblr" horiz-adv-x="512" d="M386 104c42 0 84 12 126 40v-130c-36-16-68-30-96-36s-56-10-90-10c-38 0-70 4-100 14-28 10-56 24-76 42s-34 36-42 56-12 50-12 88v280h-96v116c32 10 60 28 84 48s38 42 52 70 22 74 28 118h124v-224h192v-128h-192v-202c0-48 2-80 8-94 4-14 14-24 28-32 18-12 38-16 62-16z" />
<glyph unicode="&#xf242;" glyph-name="ion-social-twitter-outline" horiz-adv-x="944" d="M944 676c-26-40-58-72-96-100v-24c0-256-196-552-552-552-110 0-210 32-296 88 16-2 30-4 46-4 90 0 174 32 240 84-84 2-156 58-180 134 12-2 24-4 36-4 18 0 36 4 52 8-88 18-156 96-156 190v2c26-14 56-24 88-24-52 34-86 94-86 162 0 36 10 68 26 96 96-118 238-194 398-202-4 14-4 28-4 44 0 108 86 194 194 194 56 0 104-24 140-62 44 8 86 26 124 48-14-46-46-84-86-108 40 4 78 14 112 30zM828 602c6 4 16 12 22 16-4 0-22-4-38-2s-42 10-42 10 28 26 36 34l22 22c-8-2-20-4-28-6l-16-4-12 12c-30 32-74 52-118 52-90 0-162-74-162-162 0-12 2-24 4-36l10-42-44 2c-84 4-162 26-236 64-56 28-106 68-150 112-2-12-4-26-4-38 0-54 28-106 72-136 0 0 66-46 92-58-48-4-112 0-112 0-16 0-32 2-48 6 16-56 64-100 124-112l122-20-122-42c-14-4-28-6-42-6 30-40 76-68 128-68l90-2-70-56c-36-28-76-50-120-66-20-6-38-12-58-16 54-18 110-28 168-28 80 0 156 16 224 48 62 28 116 68 162 120 44 48 76 106 100 168 22 60 34 124 34 184v24l-2 16z" />
<glyph unicode="&#xf243;" glyph-name="ion-social-twitter" horiz-adv-x="944" d="M944 676c-26-40-58-72-96-100v-24c0-256-196-552-552-552-110 0-210 32-296 88 16-2 30-4 46-4 90 0 174 32 240 84-84 2-156 58-180 134 12-2 24-4 36-4 18 0 36 4 52 8-88 18-156 96-156 190v2c26-14 56-24 88-24-52 34-86 94-86 162 0 36 10 68 26 96 96-118 238-194 398-202-4 14-4 28-4 44 0 108 86 194 194 194 56 0 104-24 140-62 44 8 86 26 124 48-14-46-46-84-86-108 40 4 78 14 112 30z" />
<glyph unicode="&#xf244;" glyph-name="ion-social-vimeo-outline" d="M890 668c14-66 2-132-26-194s-62-118-102-174c-52-72-104-142-170-202-38-36-82-70-132-88-20-8-38-10-54-10-34 0-62 18-88 54-28 38-44 80-56 126-24 90-50 180-76 268-8 24-18 44-30 66-6 10-16 20-24 28-4 4-10 6-16 6s-12-2-18-6c-20-12-56-36-56-36l-42 54c52 48 164 142 164 142 22 18 66 50 96 54h16c36 0 64-14 84-44 22-34 30-74 36-114 14-82 24-164 48-244 6-20 14-40 24-58 8-14 18-20 28-20 8 0 14 4 22 10s14 12 20 20c40 48 74 104 96 162 6 18 6 34 6 54 0 26-20 50-50 52h-14c-22 0-40-4-64-14 12 48 48 124 108 168 40 28 90 40 134 40 20 0 40-4 54-8 46-16 72-46 82-92zM836 488c26 60 34 118 22 174-8 38-26 56-60 68-12 4-28 6-44 6-42 0-84-12-114-34-32-24-58-60-76-96h28c46-2 78-38 80-82 0-20 0-44-8-68-22-58-58-116-102-170-8-8-14-18-24-26-14-12-30-16-44-16-16 0-36 6-54 36-14 22-22 44-28 64-20 62-28 128-38 190-4 20-6 38-10 58-6 34-12 72-32 102-14 20-32 30-56 30h-12c-16-2-50-22-80-46-4-4-86-74-140-122l4-6c10 8 24 14 32 20 12 6 24 10 36 10 14 0 26-6 36-14 16-14 26-24 32-36 12-22 24-48 32-74 26-88 52-176 76-266 10-38 26-82 52-118s46-40 62-40c12 0 26 2 42 8 46 16 86 50 122 82 64 58 114 126 166 198v0c42 56 74 110 100 168z" />
<glyph unicode="&#xf245;" glyph-name="ion-social-vimeo" d="M890 668c14-66 2-132-26-194s-62-118-102-174c-52-72-104-142-170-202-38-36-82-70-132-88-62-22-104-10-142 44-28 38-44 80-56 126-24 90-50 180-76 268-8 24-18 44-30 66-6 10-16 20-24 28-10 8-22 6-34 0-20-12-56-36-56-36l-42 54c52 48 164 142 164 142 22 18 66 50 96 54 42 6 76-8 100-44 22-34 30-74 36-114 14-82 22-164 46-244 6-20 16-40 26-58 14-22 30-26 50-10 8 6 14 12 20 20 40 48 74 104 96 162 6 18 6 34 6 54 0 26-20 50-50 52s-48-2-78-14c12 48 48 124 108 168 58 42 142 48 188 32s72-46 82-92z" />
<glyph unicode="&#xf246;" glyph-name="ion-social-windows-outline" d="M864 334h-432v-298l432-64v362zM896 366v0-430l-496 72v358h496zM336 334h-304v-240l304-44v284zM368 366v0-354l-368 54v300h368zM864 796v0l-432-62v-304h432v366zM896 832v0-434h-496v364zM336 720v0l-304-44v-246h304v290zM368 756v0-358h-368v306z" />
<glyph unicode="&#xf247;" glyph-name="ion-social-windows" d="M896 366v0-430l-496 72v358h496zM368 366v0-354l-368 54v300h368zM896 832v0-434h-496v364zM368 756v0-358h-368v306z" />
<glyph unicode="&#xf248;" glyph-name="ion-social-wordpress-outline" horiz-adv-x="768" d="M384 768c212 0 384-172 384-384 0-18-2-36-4-52-24-170-158-306-330-328-16-2-34-4-50-4-212 0-384 172-384 384s172 384 384 384zM38 384c0-136 80-254 196-310l-166 450c-20-42-30-90-30-140zM428 42c24 4 48 8 70 16 0 2-2 4-2 6l-106 290-66-192-38-110c30-10 64-14 98-14 16 0 30 2 44 4zM432 546l124-372 34 116c18 44 26 82 26 112 0 42-14 70-28 94-18 28-34 54-34 82 0 32 24 60 58 60h4c-62 56-142 90-232 90-120 0-226-60-288-154 8 0 16-2 22-2 36 0 92 6 92 6 18 2 20-28 2-30 0 0-20-2-40-2l126-374 76 226-54 148c-18 0-36 2-36 2-18 0-16 32 2 30 0 0 56-6 90-6 36 0 92 6 92 6 18 2 22-28 4-30 0 0-20-2-40-2zM558 86c90 52 154 142 168 250 2 16 4 32 4 48 0 60-16 116-44 166 2-12 2-24 2-36 0-36-6-74-26-124l-78-226z" />
<glyph unicode="&#xf249;" glyph-name="ion-social-wordpress" horiz-adv-x="768" d="M390 354l106-292c0-2 12-26 18-38-6-2-10-4-16-6v0c-20-6-42-12-64-14-16-2-34-4-50-4-34 0-68 4-100 12v0c-4 0-6 4-10 4l50 146zM34 536c12 0 14-2 30-2l186-510c-6 2-10 4-16 6-126 54-218 174-232 316-2 12-2 26-2 38 0 50 14 106 34 152zM732 546c22-48 36-104 36-162 0-18-2-36-4-52-18-130-100-240-214-294-4-2-6-2-10-4l44 130 78 226c20 50 26 90 26 124v38c-2 36-20 88-72 86h-4c-34 0-58-28-58-60 0-28 16-54 34-82 14-24 28-52 28-94 0-30-8-68-26-112l-34-116-124 372c20 0 40 2 40 2 18 2 14 32-4 30 0 0-56-6-92-6-34 0-90 6-90 6-18 2-20-30-2-30 0 0 18-2 36-2l54-148-76-226-126 374c20 0 40 4 40 4 18 2 16 30-2 28 0 0-56-4-92-4h-68c10 18 22 34 34 50 70 88 180 144 300 144 48 0 96-10 138-26 68-26 126-72 170-130 4-4 6-10 10-14 12-16 22-34 30-52z" />
<glyph unicode="&#xf24a;" glyph-name="ion-social-yahoo-outline" horiz-adv-x="640" d="M578 760c22 0 42 2 62 8l-256-426v-342c-20 8-42 8-64 8s-44 0-64-8v342l-256 426c20-8 42-8 64-8s44 0 64 8l192-320 192 320c20-8 44-8 66-8zM356 360l222 368h-2c-14 0-30 0-48 4l-180-300-28-46-28 46-178 300c-18-4-34-4-50-4h-2l222-368 4-8v-312c12 2 22 0 32 0s22 2 32 0v312z" />
<glyph unicode="&#xf24b;" glyph-name="ion-social-yahoo" horiz-adv-x="640" d="M578 760c22 0 42 2 62 8l-256-426v-342c-20 8-42 8-64 8s-44 0-64-8v342l-256 426c20-8 42-8 64-8s44 0 64 8l192-320 192 320c20-8 44-8 66-8z" />
<glyph unicode="&#xf24c;" glyph-name="ion-social-youtube-outline" d="M530 704v0h-36c-130 0-236-4-336-8h-4c-46 0-84-44-84-98v-4c-4-68-6-140-6-210v0 0c0-70 2-140 6-208v-6c0-28 10-52 28-72 16-18 34-26 56-26h4c104-4 216-8 332-8h44c116 0 226 4 332 8h4c22 0 40 8 56 26 18 20 28 44 28 72v6c4 68 6 136 6 208v0 0c0 72-2 142-6 210v6c0 54-38 98-84 98h-4c-98 4-206 6-336 6zM530 768v0c116 0 230 0 340-6 82 0 148-72 148-162 4-72 6-144 6-216s-2-142-6-214c0-90-66-162-148-162-110-6-222-8-336-8h-44c-114 0-226 2-336 8-82 0-148 72-148 162-4 72-6 142-6 214s4 142 8 214c0 90 64 164 146 164 110 4 224 6 340 6h36zM414 188v394l290-198z" />
<glyph unicode="&#xf24d;" glyph-name="ion-social-youtube" d="M1018 598c4-72 6-142 6-214s-2-142-6-214c0-90-66-162-148-162-116-6-236-8-358-8s-242 2-358 8c-82 0-148 72-148 162-4 72-6 142-6 214s4 142 8 214c0 90 64 162 146 162 110 6 224 8 340 8h36c116 0 230-2 340-8 82 0 148-72 148-162zM414 188l290 196-290 198v-394z" />
<glyph unicode="&#xf24e;" glyph-name="ion-star" d="M896 496l-278-208 110-352-280 224-280-224 110 352-278 208h344l104 336 106-336h342z" />
<glyph unicode="&#xf24f;" glyph-name="ion-stop" horiz-adv-x="768" d="M746 768c12 0 22-10 22-22v-724c0-12-10-22-22-22h-724c-12 0-22 10-22 22v724c0 12 10 22 22 22h724z" />
<glyph unicode="&#xf250;" glyph-name="ion-thumbsdown" horiz-adv-x="768" d="M48 390c-20 10-36 34-36 58 0 28 16 50 40 60-8 10-12 24-12 38 0 28 16 50 40 60-6 10-10 22-10 34 0 36 22 48 70 60s148 24 252 18c46-2 110-14 152-14v64h224v-480h-224v32c-30-2-62-8-80-28-44-46-80-130-80-216 0-38 2-58-8-68-26-26-88 18-104 74-18 68-2 124 2 174h-206c-38 0-68 30-68 68 0 30 20 58 48 66zM672 704c-18 0-32-14-32-32s14-32 32-32 32 14 32 32-14 32-32 32z" />
<glyph unicode="&#xf251;" glyph-name="ion-thumbsup" horiz-adv-x="768" d="M720 378c20-10 36-34 36-58 0-28-16-50-40-60 8-10 12-24 12-38 0-28-16-50-40-60 6-10 10-22 10-34 0-36-22-48-70-60s-148-24-252-18c-46 2-110 14-152 14v-64h-224v480h224v-32c30 2 62 8 80 28 44 46 80 130 80 216 0 38-2 58 8 68 26 26 88-18 104-74 18-68 2-124-2-174h206c38 0 68-30 68-68 0-30-20-58-48-66zM96 64c18 0 32 14 32 32s-14 32-32 32-32-14-32-32 14-32 32-32z" />
<glyph unicode="&#xf252;" glyph-name="ion-trash-a" horiz-adv-x="704" d="M522 640v0h182v-64h-18s-10-2-16-8-8-18-8-18l-38-482c-4-58-4-68-72-68h-400c-68 0-68 10-72 68l-38 484s-2 12-8 18-16 6-16 6h-18v64h182v58c0 38 28 70 68 70h202c40 0 70-32 70-70v-58zM224 698v-58h256v58c0 20-18 30-38 30h-182c-20 0-36-10-36-30zM208 128h40l-20 384h-42zM374 128v384h-44v-384h44zM498 128l20 384h-40l-22-384h42z" />
<glyph unicode="&#xf253;" glyph-name="ion-trash-b" horiz-adv-x="640" d="M636 630c6-24 8-22-14-22h-604c-22 0-20-2-14 22 4 18 8 26 8 26 6 18 18 18 38 22l106 14c14 2 14 2 20 14 18 40 20 62 40 62h206c20 0 24-22 42-62 6-12 6-12 20-14l106-12c20-4 32-4 38-22 0 0 4-10 8-28zM566 544c34 0 36-4 34-30l-38-484c-4-24-4-30-34-30h-416c-30 0-30 6-34 30l-38 484c-2 24 0 30 34 30h492z" />
<glyph unicode="&#xf254;" glyph-name="ion-unlocked" horiz-adv-x="768" d="M44-64c-24 0-44 20-44 44v424c0 24 20 44 44 44h44v62c0 84 34 174 86 230s128 92 210 92v0 0c82 0 158-36 210-92 40-42 66-102 78-164h-106c-10 36-26 70-48 94v0 2c-36 38-84 58-134 58v0 0c-50 0-98-20-134-58v-2c-36-38-56-106-56-160v-62h530c24 0 44-20 44-44v-424c0-24-20-44-44-44h-680z" />
<glyph unicode="&#xf255;" glyph-name="ion-upload" d="M732 430c90 0 164-74 164-166s-74-168-164-168h-220v160h96l-160 168-160-168h96v-160h-204c-98 0-180 82-180 182 0 80 52 148 122 172 10 58 58 102 118 102 20 0 36-6 52-14 38 80 118 134 210 134 128 0 230-106 230-236v-6z" />
<glyph unicode="&#xf256;" glyph-name="ion-videocamera" d="M670 526v-132l226 70v-354l-226 70v-130c0-10-8-18-18-18h-634c-10 0-18 8-18 18v476c0 10 8 18 18 18h416v76c0 8-12 20-20 20h-352v96h356c72 0 130-58 130-128v-64h104c10 0 18-8 18-18zM452 214c40 0 72 32 72 72s-32 70-72 70-72-30-72-70c0-20 8-38 22-52h-136c14 14 22 32 22 52 0 40-32 72-72 72s-72-32-72-72 32-72 72-72h236z" />
<glyph unicode="&#xf257;" glyph-name="ion-volume-high" d="M398 80l-190 176h-208v256h208l190 176v-608zM510 184l-40 32c34 48 54 104 54 168s-20 120-54 168l40 32c40-56 66-126 66-200s-26-144-66-200zM644 92l-42 32c54 72 86 162 86 260s-32 188-86 260l42 32c60-82 96-182 96-292s-36-210-96-292zM730 738l40 30c78-108 126-240 126-384s-48-276-126-384l-40 30c72 98 116 222 116 354s-44 256-116 354z" />
<glyph unicode="&#xf258;" glyph-name="ion-volume-low" horiz-adv-x="576" d="M398 80l-190 176h-208v256h208l190 176v-608zM510 184l-40 32c34 48 56 104 56 168s-22 120-56 168l40 32c40-56 66-126 66-200s-26-144-66-200z" />
<glyph unicode="&#xf259;" glyph-name="ion-volume-medium" horiz-adv-x="740" d="M398 80l-190 176h-208v256h208l190 176v-608zM510 184l-40 32c34 48 56 104 56 168s-22 120-56 168l40 32c40-56 66-126 66-200s-26-144-66-200zM644 92l-42 32c54 72 86 162 86 260s-32 188-86 260l42 32c60-82 96-182 96-292s-36-210-96-292z" />
<glyph unicode="&#xf25a;" glyph-name="ion-volume-mute" d="M448 462l94 102v-360l-94 102h-130v156h130zM664 776c138-76 232-224 232-392 0-248-200-448-448-448-78 0-152 20-216 54l-2 2c-138 76-230 224-230 392 0 248 200 448 448 448 78 0 150-20 214-56h2zM724 186c40 56 66 124 66 198 0 132-76 246-184 302-12 6-22 12-34 16-38 14-80 22-124 22-74 0-142-24-198-64l146-148h-152l-72 70c-40-56-64-124-64-198 0-130 72-242 180-300 12-6 26-14 38-18 38-14 78-22 122-22 74 0 144 24 200 64l-40 40v154z" />
<glyph unicode="&#xf25b;" glyph-name="ion-waterdrop" horiz-adv-x="640" d="M350 818c80-82 290-320 290-576 0-170-144-306-320-306-112 0-212 54-268 138-12 18-22 38-30 58-14 34-22 70-22 110v8c2 134 62 262 128 366 40 62 84 114 118 154 18 20 32 36 44 48l2 2c8 6 16 12 28 12 10 0 20-6 28-12v0zM320 48c110 0 200 90 200 200 0 28-6 56-16 80-34-130-140-232-272-260 26-12 56-20 88-20z" />
<glyph unicode="&#xf25c;" glyph-name="ion-wifi" d="M448 704c160 0 312-60 428-168l20-20-20-18-84-84-18 18c-88 82-206 128-326 128s-238-46-326-128l-18-18-84 84-20 18 20 20c116 108 268 168 428 168v0zM730 384l22-20-20-20-66-64-18-18-20 16c-50 44-114 70-180 70s-130-26-180-70l-20-16-18 18-66 64-20 20 22 20c74 66 166 104 264 108v0h18c104 0 204-38 282-108zM448 64l-124 124-22 20 24 20c34 22 64 40 122 40s94-18 124-40l22-20-20-20-106-104z" />
<glyph unicode="&#xf25d;" glyph-name="ion-woman" horiz-adv-x="384" d="M60 598c6 24 34 66 84 68h96c48-2 76-44 84-68l58-208c12-46-42-64-54-20l-52 192h-18l92-338h-86v-254c0-46-62-46-62 0v254h-20v-254c0-46-64-46-64 0v254h-84l90 338h-14l-54-192c-14-42-66-26-54 20zM266 758c0-42-34-74-74-74s-74 32-74 74 34 74 74 74 74-32 74-74z" />
<glyph unicode="&#xf25e;" glyph-name="ion-arrow-expand" horiz-adv-x="640" d="M356 476l128 128-100 100h256v-256l-100 100-128-128zM356 292l56 56 128-128 100 100v-256h-256l100 100zM284 292l-128-128 100-100h-256v256l100-100 128 128zM284 476l-56-56-128 128-100-100v256h256l-100-100z" />
<glyph unicode="&#xf25f;" glyph-name="ion-arrow-graph-down-left" d="M0 128v320l122-122 262 282 214-224 298 256-298-406-214 214-188-196 124-124h-320z" />
<glyph unicode="&#xf260;" glyph-name="ion-arrow-graph-down-right" d="M576 128l124 124-188 196-214-214-298 406 298-256 214 224 262-282 122 122v-320h-320z" />
<glyph unicode="&#xf261;" glyph-name="ion-arrow-graph-up-left" d="M320 640l-124-124 188-196 214 214 298-406-298 256-214-224-262 282-122-122v320h320z" />
<glyph unicode="&#xf262;" glyph-name="ion-arrow-graph-up-right" d="M576 640h320v-320l-122 122-262-282-214 224-298-256 298 406 214-214 188 196z" />
<glyph unicode="&#xf263;" glyph-name="ion-arrow-move" d="M896 384l-192-192v152h-218l2-216h152l-192-192-192 192h152v216h-216v-152l-192 192 192 192v-152h216v216h-152l192 192 192-192h-152v-216h216v152z" />
<glyph unicode="&#xf264;" glyph-name="ion-arrow-resize" horiz-adv-x="640" d="M384 704h256v-256l-100 100-384-384 100-100h-256v256l100-100 384 384z" />
<glyph unicode="&#xf265;" glyph-name="ion-arrow-return-left" horiz-adv-x="768" d="M256 704v-128h496c8 0 16-8 16-16v-480c0-8-8-16-16-16h-608c-8 0-16 8-16 16v96c0 8 8 16 16 16h496v256h-384v-128l-256 192z" />
<glyph unicode="&#xf266;" glyph-name="ion-arrow-return-right" horiz-adv-x="768" d="M768 512l-256-192v128h-384v-256h496c8 0 16-8 16-16v-96c0-8-8-16-16-16h-608c-8 0-16 8-16 16v480c0 8 8 16 16 16h496v128z" />
<glyph unicode="&#xf267;" glyph-name="ion-arrow-shrink" horiz-adv-x="768" d="M768 712l-164-164 100-100h-256v256l100-100 164 164zM768 56l-56-56-164 164-100-100v256h256l-100-100zM0 56l164 164-100 100h256v-256l-100 100-164-164zM0 712l56 56 164-164 100 100v-256h-256l100 100z" />
<glyph unicode="&#xf268;" glyph-name="ion-arrow-swap" horiz-adv-x="768" d="M0 240c0 8 8 16 16 16h496v128l256-192-256-192v128h-496c-8 0-16 8-16 16v96zM768 528c0-8-8-16-16-16h-496v-128l-256 192 256 192v-128h496c8 0 16-8 16-16v-96z" />
<glyph unicode="&#xf269;" glyph-name="ion-beaker" horiz-adv-x="768" d="M160 512h480v-448c0-18-14-32-32-32h-416c-18 0-32 14-32 32v448zM592 208v96c0 8-8 16-16 16s-16-8-16-16v-96c0-8 8-16 16-16s16 8 16 16zM576 352c8 0 16 8 16 16s-8 16-16 16-16-8-16-16 8-16 16-16zM762 832c6 0 6-4 6-6s-4-6-6-10-26-40-26-80v-672c0-70-58-128-128-128h-416c-70 0-128 58-128 128v614c0 64-4 66-64 74 0 24 22 80 130 80h632zM672 736c0 10 0 32 2 32h-546c-2 0-6 0-8-2 10-14 8-64 8-88v-614c0-36 28-64 64-64h420c34 0 60 28 60 64v672z" />
<glyph unicode="&#xf26a;" glyph-name="ion-beer" d="M768 576c70 0 128-58 128-128v-192c0-70-58-128-128-128h-64v-160c0-18-14-32-32-32h-512c-18 0-32 14-32 32v446c-52 0-96 44-96 96v110c-20 22-32 52-32 84 0 70 58 128 128 128 36 0 68-16 92-40 20 24 52 40 86 40 28 0 54-12 74-28 24 18 52 28 84 28 34 0 68-12 92-32 22 20 52 32 84 32 70 0 128-58 128-128 0-48-36-88-64-96v-32h64zM592 288c8 0 16 6 16 16v0 96c0 8-8 16-16 16s-16-8-16-16v-96c0-6 4-12 8-14 2-2 4-2 8-2zM606 440c2 4 2 8 2 12s-2 8-6 10-8 2-12 2-8-4-10-8-4-8-4-12 4-8 8-10 8-2 12-2 8 4 10 8zM640 576v64h-40c-6-16-14-32-26-46-26-32-66-50-110-50-52 0-96 26-122 66-12-4-24-6-36-6-24 0-46 8-64 20-4 2-6 6-10 8-2-4-4-6-6-10-10-12-22-20-34-28v-82h160c0 8 8 16 16 16s16-8 16-16h256v64zM702 686c2 6 2 12 2 18 0 36-28 64-64 64-18 0-34-8-46-20-4-4-12-10-32-12h-16c-12 2-24 6-28 10-14 14-32 22-54 22-18 0-36-8-50-18l-14-14c0-2 0-2-2-4-6-6-14-10-22-10-10 0-16 6-22 12-2 4-4 6-6 10s-6 8-10 12-20 12-32 12c-20 0-36-18-50-32-14-16-54-16-68 0s-36 32-60 32c-36 0-64-28-64-64 0-4 2-10 2-14 4-18 14-34 30-42v-138c0-18 14-32 32-32v162c20 0 36 8 48 22 4 4 6 8 8 12 0 0 12 20 24 22s40 12 60-10c8-10 22-18 38-18 6 0 10 2 14 4 6 2 14 4 18 8v0c6 4 12 8 20 8 14 0 24-8 28-20 0 0 2-2 2-4 2-6 2-10 6-16 14-24 40-40 70-40 26 0 50 12 64 32 10 14 16 30 16 48s18 16 18 16h110c12 0 26-6 30-18zM832 256v192c0 36-28 64-64 64h-64v-320h64c36 0 64 28 64 64zM256 560c0 10 6 16 16 16s16-6 16-16-6-16-16-16-16 6-16 16zM576 560c0 10 6 16 16 16s16-6 16-16-6-16-16-16-16 6-16 16z" />
<glyph unicode="&#xf26b;" glyph-name="ion-bookmark" horiz-adv-x="384" d="M368 768c8 0 16-8 16-16v-112h-384v112c0 8 8 16 16 16h352zM0 0v608h384v-608l-192 192z" />
<glyph unicode="&#xf26c;" glyph-name="ion-briefcase" d="M480 352v16h416v-352c0-8-8-16-16-16h-864c-8 0-16 8-16 16v352h416v-16h64zM880 608c8 0 16-8 16-16v-192h-416v16h-64v-16h-416v192c0 8 8 16 16 16h240v62c2 56 44 98 102 98h180c60 0 100-42 102-98v-62h240zM576 664v2c0 20-18 38-38 38h-180c-20 0-38-18-38-38v-58h256v56z" />
<glyph unicode="&#xf26d;" glyph-name="ion-calculator" horiz-adv-x="640" d="M608 832c18 0 32-14 32-32v-832c0-18-14-32-32-32h-576c-18 0-32 14-32 32v832c0 18 14 32 32 32h576zM96 480v-64h64v64h-64zM96 352v-64h64v64h-64zM96 224v-64h64v64h-64zM288 32v64h-192v-64h192zM288 160v64h-64v-64h64zM288 288v64h-64v-64h64zM288 416v64h-64v-64h64zM416 32v64h-64v-64h64zM416 160v64h-64v-64h64zM416 288v64h-64v-64h64zM416 416v64h-64v-64h64zM544 32v192h-64v-192h64zM544 288v64h-64v-64h64zM544 416v64h-64v-64h64zM544 576v160h-448v-160h448z" />
<glyph unicode="&#xf26e;" glyph-name="ion-clock" d="M448 832c248 0 448-200 448-448s-200-448-448-448-448 200-448 448 200 448 448 448zM720 112c20 20 38 42 52 66l-54 32 16 28 54-32c26 50 42 104 44 162h-64v32h64c-2 58-18 112-44 162l-54-32-16 28 54 32c-14 24-32 46-52 66s-42 38-66 52l-32-54-28 16 32 54c-50 26-104 42-162 44v-64h-32v64c-58-2-112-18-162-44l32-54-28-16-32 54c-24-14-46-32-66-52s-38-42-52-66l54-32-16-28-54 32c-26-50-42-104-44-162h64v-32h-64c2-58 18-112 44-162l54 32 16-28-54-32c14-24 32-46 52-66s42-38 66-52l32 54 28-16-32-54c50-26 104-42 162-44v64h32v-64c58 2 112 18 162 44l-32 54 28 16 32-54c24 14 46 32 66 52zM736 414v-64h-234c-12-18-32-30-54-30-36 0-64 28-64 64 0 24 12 44 32 56v136h64v-136c10-6 18-16 24-26h232z" />
<glyph unicode="&#xf26f;" glyph-name="ion-code-download" d="M598 328l-128-128-4-2-2-2-4-2h-4c-2 0-6-2-8-2s-6 2-8 2h-4l-4 2-2 2c-2 2-4 2-6 4v0l-126 126c-12 12-12 34 0 46s36 12 48 0l70-68v236c0 18 14 34 32 34s32-16 32-34v-236l70 68c12 12 36 12 48 0s12-34 0-46zM272 112c-12 0-24 4-34 14l-224 224c-18 18-18 50 0 68l224 224c18 18 50 18 68 0s18-50 0-68l-190-190 190-190c18-18 18-50 0-68-10-10-22-14-34-14zM624 112c-12 0-24 4-34 14-18 18-18 50 0 68l190 190-190 190c-18 18-18 50 0 68s50 18 68 0l224-224c18-18 18-50 0-68l-224-224c-10-10-22-14-34-14z" />
<glyph unicode="&#xf270;" glyph-name="ion-code-working" d="M256 384c0 32 16 48 48 48s48-16 48-48-16-48-48-48-48 16-48 48zM400 384c0 32 16 48 48 48s48-16 48-48-16-48-48-48-48 16-48 48zM544 384c0 32 16 48 48 48s48-16 48-48-16-48-48-48-48 16-48 48zM272 112c-14 0-24 4-34 14l-224 224c-10 10-14 20-14 34s4 24 14 34l224 224c10 10 20 14 34 14s24-4 34-14 14-20 14-34-4-24-14-34l-190-190 190-190c10-10 14-20 14-34s-4-24-14-34-20-14-34-14zM624 112c-14 0-24 4-34 14s-14 20-14 34 4 24 14 34l190 190-190 190c-10 10-14 20-14 34s4 24 14 34 20 14 34 14 24-4 34-14l224-224c10-10 14-20 14-34s-4-24-14-34l-224-224c-10-10-20-14-34-14z" />
<glyph unicode="&#xf271;" glyph-name="ion-code" d="M272 112c-12 0-24 4-34 14l-224 224c-18 18-18 50 0 68l224 224c18 18 50 18 68 0s18-50 0-68l-190-190 190-190c18-18 18-50 0-68-10-10-22-14-34-14zM624 112c-12 0-24 4-34 14-18 18-18 50 0 68l190 190-190 190c-18 18-18 50 0 68s50 18 68 0l224-224c18-18 18-50 0-68l-224-224c-10-10-22-14-34-14z" />
<glyph unicode="&#xf272;" glyph-name="ion-coffee" horiz-adv-x="768" d="M638 382c74-14 130-80 130-158 0-40-16-78-42-108-30-34-74-52-122-52-16 0-34 2-50 6-12 2-20 6-30 10-22-30-46-50-64-66v0c-10-10-24-14-38-14h-204c-14 0-28 4-38 14v0c-34 30-82 72-124 172s-56 182-56 222 6 40 32 40h202c-10 34-74 38-74 92 0 34 30 64 56 74-4-16-6-28-6-42 0-38 78-60 78-106 0-6 0-12-2-18h112c2 10 4 20 4 28 0 72-112 72-112 168 0 56 42 110 94 124-8-28-18-46-18-70 0-64 114-100 114-176 0-26-10-50-24-74h152c26 0 32 0 32-40 0-8 0-16-2-26zM604 128c66 0 100 50 100 96s-34 86-78 94c-8-38-22-84-42-132-8-18-16-34-24-50 12-6 26-8 44-8z" />
<glyph unicode="&#xf273;" glyph-name="ion-compass" d="M448 832c248 0 448-200 448-448s-200-448-448-448-448 200-448 448c0 78 20 152 54 216-32 24-54 60-54 104 0 70 58 128 128 128 44 0 80-22 104-54 64 34 138 54 216 54zM64 704c0-20 10-40 26-52 26 34 56 64 90 90-12 16-32 26-52 26-36 0-64-28-64-64zM720 112c72 72 112 170 112 272s-40 200-112 272-170 112-272 112-200-40-272-112-112-170-112-272 40-200 112-272 170-112 272-112 200 40 272 112zM640 640c0 0-108-260-144-304s-240-208-240-208 108 264 144 304 240 208 240 208z" />
<glyph unicode="&#xf274;" glyph-name="ion-connection-bars" horiz-adv-x="704" d="M0 64v128h128v-128h-128zM192 64v256h128v-256h-128zM384 64v448h128v-448h-128zM576 64v640h128v-640h-128z" />
<glyph unicode="&#xf275;" glyph-name="ion-contrast" d="M448 832c248 0 448-200 448-448s-200-448-448-448-448 200-448 448 200 448 448 448zM720 112c72 72 112 170 112 272s-40 200-112 272-170 112-272 112v-768c102 0 200 40 272 112z" />
<glyph unicode="&#xf276;" glyph-name="ion-earth" d="M650 644c4-8 14-24 6-30-6-4-20-4-26 10s0 22-10 18-14 6-12 8c2 4 6 6 10 8 0 4-8 16 4 14 8-2 24-20 28-28zM688 554v0 0zM806 502c0 0-4 0 0 0v0zM448 832c248 0 448-200 448-448s-200-448-448-448-448 200-448 448 200 448 448 448zM282 38l16-8c6-2 12-4 20-6 28-10 56-16 86-20 56-6 112-2 166 16 30 10 60 22 86 40 12 8 12 32 20 48 16 32-4 66 24 94 24 28 8 38 8 68 0 20 16 36 8 58-2 8-14-6-18 2-10 14-42 2-56 4-26 4-48 28-66 46-10 10 0 40 2 52 8 30 0 66 38 76 10 2 10 18 20 22 10 2 20 6 30 8 18 2 34-4 52-4 20 0 28-10 44-22 14-12 26-6 44-10 14 0 0 10-4 16-6 4-12 4-16 4-32 8-46 44-72 60-12 6-18 4-22 0-2-2 2-24 2-24-2-6-20-8-26-10-18-4-58 34-30 44 8 2 54 10 48 30-6 12 4 26-10 28-16 2-14 14-30 16-10 2-10 22-10 28 0 18 4 12 18 14-34 22-74 38-114 48-2-6-10-24-16-24-10-2-12 0-18-6-18-20-32-56-50-14-8 22 10 38 4 56h-18c12-24-10-36-16-38-16 0-20 10-34 8-8-2-14 8-22 4s-26-16-28-24c-6-24 12-26 28-12 12 12 34 24 50 12 12-10 10-18 10-28s-2-36-18-32c-8 2-14 12-22 6-16-14-36-12-58-18-20-4-32-12-50-18-16-6-22-8-24-24 0-4 0-28-6-30-10-4-16 44-44 40-24-2-60-26-50-56 4-10 56-6 20-28-4-2 4-34 4-40 2-16 26-36 42-20 12 12 12 10 28 4 30-16 66-30 90-54 12-12 18-48 34-56 18-10 38-10 52-28 12-14-4-38-16-46-8-4-24-48-32-58-4-8-24-12-32-14-6 0-14-18-18-22-14-14-16-26-34-38-36-24-44-46-36-88 4-16 10-26 22-32zM200 92l4-4c14-12 30-22 46-32-42 42-46 98-42 156l6 48c2 6-8 14-8 22 0 20 0 10-16 26-8 8-20 22-24 34-14 32 2 60 20 86 18 28-14 40-20 64-2 12-14 12-12 24 2 14-8 10-18 18-24 16-2 40-14 52-86-140-72-324 32-448 2-2 0-2 2-4h2c6-8 12-16 18-22s14-12 20-18z" />
<glyph unicode="&#xf277;" glyph-name="ion-egg" horiz-adv-x="640" d="M320 832c128 0 320-266 320-514s-128-382-320-382-320 134-320 382 192 514 320 514z" />
<glyph unicode="&#xf278;" glyph-name="ion-female" horiz-adv-x="512" d="M320 328v-136h128v-128h-128v-128h-128v128h-128v128h128v136c-110 28-192 128-192 248 0 142 114 256 256 256s256-114 256-256c0-120-82-220-192-248zM256 416c88 0 160 72 160 160s-72 160-160 160-160-72-160-160 72-160 160-160z" />
<glyph unicode="&#xf279;" glyph-name="ion-flag" horiz-adv-x="768" d="M724 532c0 0 24 4 44 12 0-32-14-64-18-72-56-100-198-246-362-168-130 62-184 60-234 48-2 0-4-2-6-2-6-2-30-10-52-2v394c0 32 28 62 66 70 78 14 212 10 296-148 78-148 194-144 266-132zM48 832c8 0 16-8 16-16v-864c0-8-8-16-16-16h-32c-8 0-16 8-16 16v864c0 8 8 16 16 16h32z" />
<glyph unicode="&#xf27a;" glyph-name="ion-fork" horiz-adv-x="256" d="M156 598v0 0 0zM256 564c0-52-30-96-74-116-24-12-22-22-22-22s32-400 32-426-6-36-18-48-30-16-46-16v0 0c-16 0-32 4-44 16s-20 26-20 48 32 426 32 426 0 12-22 22c-44 20-74 64-74 116 0 86 30 186 48 268h16v-234c0-12 6-22 18-22s18 8 20 20v2l18 234h16l20-234v-2c2-12 6-20 18-20s18 10 18 22v234h16c18-80 48-182 48-268z" />
<glyph unicode="&#xf27b;" glyph-name="ion-hammer" horiz-adv-x="640" d="M628 832c6 0 12-6 12-12v-168c0-6-6-12-12-12h-104c-6 0-12 6-12 12v28c-12 10-32 18-44 14-14-4-46-26-60-50s-12-56-12-132l16-4c10-2 14-12 14-18v-140c0-190 22-402 22-402 0-6-6-12-12-12h-168c-6 0-12 6-12 12 0 0 22 212 22 402v140c0 6 6 16 14 18l14 4c0 86-10 116-44 148-36 32-82 38-126 34s-102-70-116-90-20 4-20 22c2 32 44 120 144 162s182 44 204 44 54-2 76-6 32-36 52-36c14 0 28 10 36 18v12c0 6 6 12 12 12h104z" />
<glyph unicode="&#xf27c;" glyph-name="ion-help-buoy" d="M448 832c248 0 448-200 448-448s-200-448-448-448-448 200-448 448 200 448 448 448zM804 528c-20 48-46 90-84 128s-82 64-130 84l-38-122c28-12 54-30 76-52s42-48 54-76zM448 192c106 0 192 86 192 192s-86 192-192 192-192-86-192-192 86-192 192-192zM176 656c-38-38-64-82-84-130l122-38c12 28 30 54 52 76s48 42 76 54l-38 122c-48-20-90-46-128-84zM92 240c20-48 46-90 84-128s82-64 130-84l38 122c-28 12-54 30-76 52s-42 48-54 76zM720 112c38 38 64 82 84 130l-122 38c-12-28-30-54-52-76s-48-42-76-54l38-122c48 20 90 46 128 84z" />
<glyph unicode="&#xf27d;" glyph-name="ion-icecream" horiz-adv-x="640" d="M64 384h512l-256-448zM614 550c16-10 26-26 26-46 0-32-28-56-60-56h-520c-32 0-60 26-60 56 0 20 12 36 28 46 2 0 2 4 4 4 8 6 14 14 16 24v2c-4 12-4 24-4 36 0 84 68 152 152 152 16 0 32-4 46-8-6-24-8-62-8-62 4 30 22 58 22 58 36 46 92 76 154 76 106 0 192-86 192-192 0-22-4-42-10-60v-2c0-8 8-18 16-24 2 0 4-4 6-4z" />
<glyph unicode="&#xf295;" glyph-name="ion-jet" horiz-adv-x="652" d="M444 160l-4-26 106-116-36-54-148 18-36-110-38 110-146-18-36 54 106 116-4 26-208-70 6 106 228 206s52 346 56 384c10 80 36 110 36 110s26-30 36-110c4-38 56-384 56-384l228-206 6-106z" />
<glyph unicode="&#xf296;" glyph-name="ion-key" horiz-adv-x="384" d="M288 294c56-34 96-96 96-166 0-106-86-192-192-192s-192 86-192 192c0 72 38 134 96 168 0 0 14 32 24 82 0 8 22 12 22 24v40c0 10-14 18-14 22v32c0 4 0 8 2 12 0 2 2 2 2 4l4 2 8 8v2c4 4 6 8 6 12 0 2 2 16 2 18 0 6-4 12-8 16l-12 12c-4 4-6 10-6 16v14c0 6 4 14 8 18v0l10 10c4 4 8 6 8 12v48c0 6-4 12-8 16v2l-10 10c-4 4-6 10-6 16v36c0 22 0 38 18 46 6 2 28 6 46 6 40 0 60-16 64-72 0 0 14-162 18-286s14-180 14-180zM192 0c36 0 64 28 64 64s-28 64-64 64-64-28-64-64 28-64 64-64z" />
<glyph unicode="&#xf297;" glyph-name="ion-knife" horiz-adv-x="128" d="M124 832c4 0 4-2 4-12v-824c0-30-20-60-48-60v0 0c-28 0-48 30-48 60 2 38 28 166 32 260v0c2 60-64 62-64 140 0 268 70 382 108 428 4 4 10 8 16 8z" />
<glyph unicode="&#xf298;" glyph-name="ion-levels" horiz-adv-x="700" d="M92 698c22-10 36-32 36-58s-14-48-36-58v-550c0-18-14-32-32-32s-32 14-32 32v556c-16 12-28 30-28 52s12 40 28 52v44c0 18 14 32 32 32s32-14 32-32v-38zM284 310c18-12 30-32 30-54s-12-42-30-54v-170c0-18-14-32-32-32s-32 14-32 32v168c-20 10-34 32-34 56s14 46 34 56v424c0 18 14 32 32 32s32-14 32-32v-426zM476 570c20-12 32-32 32-56s-12-44-32-56v-426c0-18-14-32-32-32s-32 14-32 32v426c-20 12-32 32-32 56s12 44 32 56v166c0 18 14 32 32 32s32-14 32-32v-166zM700 130c0-24-12-44-32-56v-42c0-18-14-32-32-32s-32 14-32 32v42c-20 12-32 32-32 56s12 44 32 56v550c0 18 14 32 32 32s32-14 32-32v-550c20-12 32-32 32-56z" />
<glyph unicode="&#xf299;" glyph-name="ion-lightbulb" horiz-adv-x="512" d="M256 832c142 0 256-112 256-248 0-10 0-18-2-28s-4-22-6-32v-4c-34-126-90-142-118-334v-2c-4-18-20-24-40-24h-180c-20 0-36 6-40 24v2c-28 192-84 208-118 334v4c-2 10-4 22-6 32s-2 18-2 28c0 136 114 248 256 248zM380 104v-2c-4-6-6-8-6-14s2-10 6-16v-2c2-4 4-6 4-10s-2-8-4-12v-2c-4-6-6-8-6-14s2-10 6-16v-2c2-4 4-8 4-12 0-10-8-18-20-22h-2c-12-2-26-4-38-6h-4c-12-2-22-10-28-18v0c-8-10-20-20-36-20s-30 12-38 22v0c-6 8-14 14-26 16h-4c-12 2-26 4-38 6h-2c-12 4-20 12-20 22 0 4 2 8 4 12v2c4 4 6 8 6 14s-2 10-6 16v2c-2 4-4 8-4 12s2 6 4 10v2c4 6 6 10 6 16s-2 8-6 14v2c-2 4-4 8-4 12 0 8-2 12 14 12h228c16 0 14-4 14-12 0-4-2-8-4-12v0z" />
<glyph unicode="&#xf29a;" glyph-name="ion-load-a" horiz-adv-x="768" d="M288 704c0 86 42 128 128 128s128-42 128-128-42-128-128-128-128 42-128 128zM0 384c0 64 32 96 96 96s96-32 96-96-32-96-96-96-96 32-96 96zM624 608c0 10 6 16 16 16s16-6 16-16-6-16-16-16-16 6-16 16zM264 680c20-20 30-44 30-72s-10-52-30-72-44-30-72-30-52 10-72 30-30 44-30 72 10 52 30 72 44 30 72 30 52-10 72-30zM704 384c0 22 10 32 32 32s32-10 32-32-10-32-32-32-32 10-32 32zM594 158c0 32 16 48 48 48s48-16 48-48-16-48-48-48-48 16-48 48zM352 64c0 42 22 64 64 64s64-22 64-64-22-64-64-64-64 22-64 64zM112 160c0 54 26 80 80 80s80-26 80-80-26-80-80-80-80 26-80 80z" />
<glyph unicode="&#xf29b;" glyph-name="ion-load-b" d="M512 576c0-36-28-64-64-64v0c-36 0-64 28-64 64v192c0 36 28 64 64 64v0c36 0 64-28 64-64v-192zM448 256v0c36 0 64-28 64-64v-192c0-36-28-64-64-64s-64 28-64 64v192c0 36 28 64 64 64zM832 448v0c36 0 64-28 64-64s-28-64-64-64h-192c-36 0-64 28-64 64s28 64 64 64h192zM256 448v0c36 0 64-28 64-64s-28-64-64-64h-192c-36 0-64 28-64 64s28 64 64 64h192zM628 474c-24-24-66-24-90 0v0c-24 24-24 68 0 92l136 134c24 24 66 24 90 0v0c24-24 24-66 0-90zM358 294v0c24-24 24-66 0-92l-136-134c-24-24-66-24-90 0s-24 66 0 90l134 136c24 24 68 24 92 0zM764 158v0c24-24 24-66 0-90s-66-24-90 0l-136 136c-24 24-24 66 0 90s66 24 90 0zM358 564v0c24-24 24-66 0-90s-68-24-92 0l-134 136c-24 24-24 66 0 90s66 24 90 0z" />
<glyph unicode="&#xf29c;" glyph-name="ion-load-c" d="M896 444c0-6 0-12-2-18-8-16-30-24-46-14-8 4-12 14-14 22-2 10-2 18-4 28-8 40-24 80-44 116-24 42-56 82-94 112-36 30-80 52-124 66-42 12-84 18-128 18h-8c-6 0-12-2-18-2-12 0-28-2-40-4-26-4-50-12-74-22-42-16-80-40-114-70s-62-66-84-104c-24-44-40-90-48-140-4-22-4-46-4-68 0-12 0-22 2-32 2-12 4-26 6-38 10-48 28-94 56-134 26-40 58-76 96-104 40-30 84-52 130-66 50-14 100-18 152-14 50 4 100 18 146 40 22 10 44 24 64 38s38 30 54 48c8 8 16 18 24 28s14 20 20 30 24 40 34 62c8 16 16 32 22 50 4 8 6 18 8 26s2 14 4 22c2-18 2-36-2-52-2-10-4-22-8-32-2-10-6-20-10-30-8-20-16-38-26-56-12-22-24-42-40-60s-32-36-50-52c-36-30-80-54-124-72-46-18-96-28-146-30s-102 6-150 22c-46 14-90 38-130 66-38 28-72 62-100 100-14 20-26 40-36 62s-18 42-26 66c-12 36-18 74-20 112-2 40 2 78 10 116 10 48 30 94 56 136 24 38 52 70 84 100s70 54 110 72c46 22 96 38 148 42 20 2 38 2 58 2 26 0 52-4 76-8 48-10 94-28 136-52s82-58 114-96c30-36 54-74 72-116 8-20 14-42 20-64 4-16 10-34 12-52z" />
<glyph unicode="&#xf29d;" glyph-name="ion-load-d" horiz-adv-x="768" d="M736 416c18 0 32-14 32-32s-14-32-32-32h-160c-18 0-32 14-32 32s14 32 32 32h160zM224 384c0-18-14-32-32-32h-160c-18 0-32 14-32 32s14 32 32 32h160c18 0 32-14 32-32zM384 224c18 0 32-14 32-32v-160c0-18-14-32-32-32s-32 14-32 32v160c0 18 14 32 32 32zM384 768c18 0 32-14 32-32v-160c0-18-14-32-32-32s-32 14-32 32v160c0 18 14 32 32 32zM522 464c-8 16-4 36 12 44l138 80c16 8 36 4 44-12s4-36-12-44l-138-80c-16-8-36-4-44 12zM246 304c8-16 4-36-12-44l-138-80c-16-8-36-4-44 12s-4 36 12 44l138 80c16 8 36 4 44-12zM508 234l80-138c8-16 4-36-12-44s-36-4-44 12l-80 138c-8 16-4 36 12 44s36 4 44-12zM236 704l80-138c8-16 4-36-12-44s-36-4-44 12l-80 138c-8 16-4 36 12 44s36 4 44-12zM464 522c-16 8-20 28-12 44l80 138c8 16 28 20 44 12s20-28 12-44l-80-138c-8-16-28-20-44-12zM304 246c16-8 20-28 12-44l-80-138c-8-16-28-20-44-12s-20 28-12 44l80 138c8 16 28 20 44 12zM704 236c16-8 20-28 12-44s-28-20-44-12l-138 80c-16 8-20 28-12 44s28 20 44 12zM64 532c-16 8-20 28-12 44s28 20 44 12l138-80c16-8 20-28 12-44s-28-20-44-12z" />
<glyph unicode="&#xf29e;" glyph-name="ion-log-in" d="M448 832c248 0 448-200 448-448s-200-448-448-448c-192 0-354 120-418 288h68c18-40 46-80 78-112 72-72 170-112 272-112s200 40 272 112 112 170 112 272-40 200-112 272-170 112-272 112-200-40-272-112c-32-32-60-72-78-112h-68c64 168 226 288 418 288zM350 248l104 104h-454v64h454l-104 104 44 46 182-182-182-182z" />
<glyph unicode="&#xf29f;" glyph-name="ion-log-out" d="M670 248l104 104h-454v64h454l-104 104 44 46 182-182-182-182zM718 112c6 6 12 10 16 16h82c-80-116-216-192-368-192-248 0-448 200-448 448s200 448 448 448c152 0 288-76 368-192h-82c-4 6-10 10-16 16-72 72-168 112-270 112s-200-40-272-112-112-170-112-272 40-200 112-272 170-112 272-112 198 40 270 112z" />
<glyph unicode="&#xf2a0;" glyph-name="ion-magnet" horiz-adv-x="768" d="M384 832c230 0 384-156 384-400 0-98-6-154-30-256-32-132-78-226-78-226v-2c-4-6-12-12-20-12-2 0-6 2-8 2l-4 2-100 40-4 2c-6 4-10 10-10 18 0 2 0 6 2 8v2c14 32 54 118 74 202s26 126 26 216c0 142-104 244-232 244s-232-102-232-244c0-90 6-132 26-216s60-170 74-202v-2c2-2 2-6 2-8 0-8-4-14-10-18l-4-2-100-40-4-2c-2 0-6-2-8-2-8 0-16 6-20 12v2s-48 94-80 226c-24 102-28 158-28 256 0 244 154 400 384 400zM218 8c-18 38-54 118-72 196l-84-24c26-106 60-184 70-208l86 34v2zM634-28c10 24 46 102 72 208l-86 24c-18-78-52-158-70-196v-2z" />
<glyph unicode="&#xf2a1;" glyph-name="ion-male" d="M896 512l-126 126-138-138c44-60 72-132 72-212 0-194-158-352-352-352s-352 158-352 352 158 352 352 352c80 0 152-28 212-72l138 138-126 126h320v-320zM532 108c48 48 76 112 76 180s-28 132-76 180-112 76-180 76-132-28-180-76-76-112-76-180 28-132 76-180 112-76 180-76 132 28 180 76z" />
<glyph unicode="&#xf2a2;" glyph-name="ion-medkit" d="M880 608c8 0 16-8 16-16v-576c0-8-8-16-16-16h-864c-8 0-16 8-16 16v576c0 8 8 16 16 16h240v62c2 56 44 98 102 98h180c60 0 100-42 102-98v-62h240zM320 662v-54h256v58c0 20-18 38-38 38h-180c-20 0-38-18-38-38v-4zM640 256v128h-128v128h-128v-128h-128v-128h128v-128h128v128h128z" />
<glyph unicode="&#xf2a3;" glyph-name="ion-navigate" d="M896 832l-384-896v512h-512z" />
<glyph unicode="&#xf2a4;" glyph-name="ion-nuclear" d="M352 352c0 64 32 96 96 96s96-32 96-96-32-96-96-96-96 32-96 96zM352 352c0 64 32 96 96 96s96-32 96-96-32-96-96-96-96 32-96 96zM896 352c0-54-10-106-30-156s-46-94-80-132-72-70-118-96l-158 272c44 24 66 62 66 112h320zM448 480c-24 0-46-6-66-18l-160 276c70 40 146 62 226 62s156-20 226-60l-162-278c-20 12-42 18-64 18zM320 352c0-50 22-88 66-112l-158-272c-70 40-124 92-166 160s-62 142-62 224h320z" />
<glyph unicode="&#xf2a5;" glyph-name="ion-pie-graph" d="M2 384c0 10-2 22-2 32 0 230 186 416 416 416 10 0 22-2 32-2v-446h-446zM156 92c-52 64-84 142-90 228h446v446c86-6 164-38 228-90 94-76 156-192 156-324 0-230-186-416-416-416-132 0-248 62-324 156z" />
<glyph unicode="&#xf2a6;" glyph-name="ion-pin" horiz-adv-x="448" d="M376 440c40-20 72-62 72-110 0-34-6-42-30-42h-162l-24-352h-16l-24 352h-162c-24 0-30 10-30 42 0 48 32 90 72 110v0c2 0 6 2 8 4 14 8 24 22 28 38l36 236v10c0 14-8 20-20 26v0c-2 0-2 2-4 2-14 6-24 18-24 34 0 40 12 42 36 42h184c24 0 36-2 36-42 0-16-10-28-24-34-2 0-2-2-4-2v0c-12-6-20-12-20-26v-10l36-236c4-16 14-30 28-38 2-2 6-4 8-4v0z" />
<glyph unicode="&#xf2a7;" glyph-name="ion-pinpoint" d="M448 832c248 0 448-200 448-448s-200-448-448-448-448 200-448 448 200 448 448 448zM720 112c64 64 102 150 110 240l-126 16v32l126 16c-8 90-46 176-110 240s-150 102-240 110l-16-126h-32l-16 126c-90-8-176-46-240-110s-102-150-110-240l126-16v-32l-126-16c8-90 46-176 110-240s150-102 240-110l16 126h32l16-126c90 8 176 46 240 110z" />
<glyph unicode="&#xf2a8;" glyph-name="ion-pizza" horiz-adv-x="704" d="M630 636c20-8 24-26 18-40l-296-660s-286 640-296 662 4 32 18 38c78 36 180 56 278 56s192-18 278-56zM224 512c36 0 64 28 64 64s-28 64-64 64-64-28-64-64 28-64 64-64zM352 218c36 0 64 28 64 64s-28 64-64 64-64-28-64-64 28-64 64-64zM480 448c36 0 64 28 64 64s-28 64-64 64-64-28-64-64 28-64 64-64zM684 764c12-6 20-12 20-26 0-2 0-6-2-10l-16-38c-6-10-16-18-28-18-2 0-6 2-12 4-82 36-190 60-294 60s-204-22-294-60c-6-2-8-4-12-4-12 0-22 8-28 18l-16 38s-2 4-2 10c0 16 12 24 20 28 98 42 214 66 332 66s236-26 332-68z" />
<glyph unicode="&#xf2a9;" glyph-name="ion-power" d="M448 384c-36 0-64 28-64 64v320c0 36 28 64 64 64s64-28 64-64v-320c0-36-28-64-64-64zM694 758c122-80 202-218 202-374 0-248-200-448-448-448s-448 200-448 448c0 156 80 294 202 374v0c10 6 22 10 34 10 36 0 64-28 64-64 0-12-4-24-10-34-4-6-8-12-14-16-2-2-6-4-8-6-16-12-32-24-46-38-60-60-94-140-94-226s34-166 94-226 140-94 226-94 166 34 226 94 94 140 94 226-34 166-94 226c-14 14-30 26-46 38-2 2-6 4-8 6-6 4-10 10-14 16-6 10-10 22-10 34 0 36 28 64 64 64 12 0 24-4 34-10v0z" />
<glyph unicode="&#xf2aa;" glyph-name="ion-pricetag" d="M878 374c24-24 24-62 0-86l-330-334c-22-22-60-22-84-2l-6 6-412 418-12 10c-12 14-18 30-20 48v0 4l-14 196v8c0 24 8 48 26 66l98 98c16 18 40 26 62 26h8l200-8c24 0 44-8 60-24v0l4-4 420-422zM224 512c52 0 96 44 96 96s-44 96-96 96-96-44-96-96 44-96 96-96z" />
<glyph unicode="&#xf2ab;" glyph-name="ion-pricetags" d="M880 418c20-22 22-56 0-78l-58-58c22 22 20 56 0 78v0 0l-382 384h-2c-16 14-32 24-54 24v0l-180 6h-8c-18 0-38-6-52-20l56 54c16 16 34 24 54 24h8l180-8c22 0 38-8 54-22h2l2-2 380-382zM792 332v0c22-22 22-58 0-80l-216-218v2l-52-54-30-30c-20-20-52-20-74-2l-6 6-382 386c-10 12-18 28-20 44v0 4l-12 176v8c0 22 8 42 24 58l92 94c14 12 34 18 52 18h8l180-6c22 0 38-8 54-22v0l4-2 378-382zM158 616c-24-16-42-42-42-74 0-48 38-86 86-86 32 0 58 18 74 42 8 14 14 28 14 44 0 48-40 88-88 88-16 0-30-6-44-14z" />
<glyph unicode="&#xf2ac;" glyph-name="ion-radio-waves" d="M320 384c0 86 42 128 128 128s128-42 128-128-42-128-128-128-128 42-128 128zM224 384c0-36 10-70 26-100s38-56 66-74l-46-50c-12 10-26 20-36 32-50 52-74 118-74 192s24 140 74 192c10 12 24 22 36 32l46-50c-28-18-50-44-66-74s-26-64-26-100zM672 384c0 36-10 70-26 100s-38 56-66 74l46 50c12-10 26-20 36-32 50-52 74-118 74-192s-24-140-74-192c-10-12-24-22-36-32l-46 50c28 18 50 44 66 74s26 64 26 100zM64 384c0-54 12-106 34-154s54-86 94-118l-46-48c-12 10-24 20-34 32-36 38-62 82-82 130-20 50-30 102-30 158s10 108 30 158c20 48 46 92 82 130 10 12 22 22 34 32l46-48c-20-16-36-34-52-54s-28-42-40-64-20-48-26-74-10-52-10-80zM832 384c0 54-12 106-34 154s-54 86-94 118l46 48c12-10 24-20 34-32 36-38 62-82 82-130 20-50 30-102 30-158s-10-108-30-158c-20-48-46-92-82-130-8-10-20-20-34-32l-46 48c40 32 72 70 94 118s34 100 34 154z" />
<glyph unicode="&#xf2ad;" glyph-name="ion-settings" horiz-adv-x="832" d="M804 620c20-12 30-50 28-72-2-34-14-72-50-108-2-2-4-2-6-4-52-50-124-60-188-40-2 2-4 4-8 4-10 2-20 0-26-8l-72-78c104-100 214-192 214-192 4-4 4-10 0-14l-100-102c-4-4-10-4-14 0 0 0-88 110-186 214l-184-196c-28-32-80-30-110 0-30 32-30 84 2 112l194 186-24 24c-4 4-6 14-2 20l4 10c-50 52-72 66-112 64s-72-26-96-56-20-104-16-124-14-12-24 0c-18 20-46 100-12 186s84 138 96 150 32 30 48 42 42-2 54 10c8 8 10 22 10 32l-8 8c-4 4-4 10 0 14l62 62c4 4 10 4 14 0l100-100c4-4 4-12 0-16l-62-62c-4-4-10-4-14 0l-16 18c-14 0-30-10-34-20-6-12-12-42-6-66 6-22 26-40 72-86l10 6c8 4 16 2 20-2 0 0 2-4 26-28l76 74c8 6 10 14 8 26 0 4 0 8-2 10-20 66-12 138 38 192l4 4c36 36 72 50 106 52 20 2 60-10 70-30l-96-96-4-6-2-2c-2-2-2-4-2-8s0-6 2-10l8-8 82-84 8-8c2-2 4-2 8-2s6 0 8 2l4 2 4 6z" />
<glyph unicode="&#xf2ae;" glyph-name="ion-social-bitcoin-outline" horiz-adv-x="640" d="M368 800h-16v-128h-128v128h-18v-128h-176v-32h26c22 0 38 0 50-6s20-14 26-26 6-16 6-40v-356c0-22 0-36-6-48v-2c-2-6-8-20-24-28h-2c-10-6-16-6-34-6h-26l-6-32h166v-128h18v128h128v-128h16v130h30c46 2 82 10 110 20 32 12 56 30 74 52 16 22 24 58 26 84 2 28-2 58-8 72s-16 32-42 46c-14 8-28 12-42 16l-92 22 86 38c8 4 14 8 24 18 12 10 18 24 22 32 4 10 8 26 6 44-2 34-8 58-20 74-14 18-34 32-62 42-24 10-48 14-82 16l-30 2v124zM400 832v0-126c40-2 64-8 90-18 32-12 58-30 76-54s24-56 26-90c2-20 0-40-6-56s-16-32-32-46c-12-12-22-18-32-22 18-4 34-12 50-20 30-16 48-36 58-60 8-20 12-60 10-88-2-32-12-74-32-102-22-28-52-48-90-62-30-12-66-20-118-22v-130h-80v128h-64v-128h-82v128h-174l16 96h56c18 0 16 2 22 4s8 6 10 12 2 18 2 36v356c0 18 0 20-2 24s-6 8-12 12-18 4-36 4h-56v96h174v128h82v-128h64v128h80zM320 596v-148h-64v148h64zM320 352v0-180h-64v180h64zM400 588v0c12-4 20-14 28-24 8-12 12-26 12-42s-4-30-14-42c-8-10-14-18-26-24v132zM400 348v0c10-2 16-2 24-6 16-6 28-14 38-26s16-30 16-48c0-22-4-38-20-52s-26-22-46-30c-4-2-8 0-12-2v164z" />
<glyph unicode="&#xf2af;" glyph-name="ion-social-bitcoin" horiz-adv-x="640" d="M628 338c8-20 14-60 12-88-2-32-10-74-32-102s-52-48-90-62c-30-12-66-20-118-22v-128h-80v128h-64v-128h-82v128h-174l18 96h52c18 0 18 0 24 2s8 8 10 14 4 16 4 34v346c0 18-2 32-4 36s-6 8-12 12-18 4-36 4h-56v96h174v128h82v-128h64v128h80v-128c40-2 66-8 92-18 32-12 56-30 74-54s24-56 26-90c2-20 0-40-6-56-4-16-16-32-32-46-12-12-22-18-32-22 18-4 34-12 50-20 30-16 46-36 56-60zM256 596v-148h64v148h-64zM256 172h64v180h-64v-180zM400 588v-132c12 6 18 14 26 24 10 12 14 24 14 40s-4 30-12 42c-8 10-16 22-28 26zM458 214c16 14 20 30 20 52 0 18-6 38-16 50s-24 20-40 26c-8 4-12 4-22 6v-164c4 0 10 2 14 4 20 8 28 12 44 26z" />
<glyph unicode="&#xf2b0;" glyph-name="ion-social-pinterest-outline" d="M448 832c248 0 448-200 448-448s-200-448-448-448-448 200-448 448 200 448 448 448zM720 112c72 72 112 170 112 272s-40 200-112 272-170 112-272 112-200-40-272-112-112-170-112-272 40-200 112-272c28-28 62-50 96-68 2 12 4 20 6 32 8 36 58 244 58 244s-16 30-16 72c0 66 40 116 88 116 40 0 60-32 60-68 0-40-26-102-40-158-12-48 24-86 70-86 84 0 142 108 142 238 0 98-66 170-186 170-136 0-220-100-220-214 0-40 12-66 30-88 8-10 10-12 6-24-2-8-8-28-10-36-4-12-12-16-22-12-62 26-92 96-92 172 0 128 108 280 320 280 172 0 284-126 284-258 0-176-98-306-242-306-48 0-94 26-110 56 0 0-24-104-30-124-4-12-8-26-14-38 30-8 62-12 94-12 102 0 200 40 272 112z" />
<glyph unicode="&#xf2b1;" glyph-name="ion-social-pinterest" d="M448 832c248 0 448-200 448-448s-200-448-448-448c-44 0-88 6-128 18 16 28 36 62 46 96 6 20 32 124 32 124 16-30 60-56 108-56 144 0 242 130 242 306 0 132-112 258-284 258-212 0-320-152-320-280 0-78 30-146 92-172 10-4 20 0 24 12 2 8 6 28 8 36 4 12 2 14-6 24-18 22-30 48-30 88 0 114 84 214 220 214 120 0 188-72 188-170 0-130-58-238-142-238-48 0-84 38-72 86 14 56 40 118 40 158 0 36-20 68-60 68-48 0-86-50-86-116 0-42 14-72 14-72s-50-208-58-244c-8-34-10-70-8-102-158 70-268 226-268 410 0 248 200 448 448 448z" />
<glyph unicode="&#xf2b2;" glyph-name="ion-speakerphone" d="M78 532c0-74 40-138 100-172-2 0-4 2-6 2s-8 2-10 2v0c-70 6-124 66-138 138-12 0-24 14-24 32 0 16 10 30 22 32 12 84 80 150 162 150h16c-72-30-122-102-122-184zM866 714c20-50 30-112 30-176s-10-126-30-176l-6-18c-12-28-30-52-48-68-20-20-44-38-68-40h-6c-14 0-30 4-44 10-6 4-20 10-20 10-44 20-168 56-230 58-8-16-20-40-24-60-4-18-12-54-14-122-2-64 2-118 6-164 0-4 2-10 2-14 0-12-4-18-18-18h-154c-12 0-18 6-18 12v14c4 144 50 280 52 290 4 18 10 34 14 60 4 24-54 26-80 48-58 34-94 98-94 172 0 82 50 154 118 184h122c116 6 228 42 326 100 2 2 6 2 8 4v0c16 8 32 12 48 12 26 0 52-12 74-32 18-18 36-42 48-70 2-6 4-10 6-16zM820 360c18 44 30 108 30 178s-12 132-30 176c-16 36-38 58-60 58s-42-22-58-58c-18-44-30-106-30-176s12-134 30-178c16-38 36-66 58-66s44 30 60 66z" />
<glyph unicode="&#xf2b3;" glyph-name="ion-speedometer" d="M624 384l16-16-128-168v-8c0-36-28-64-64-64s-64 28-64 64 28 64 64 64h8zM448 704c248 0 448-200 448-448 0-68-16-134-44-192h-72c30 54 50 114 52 176h-64v32h64c-2 58-18 112-44 162l-54-30-16 26 54 32c-16 24-32 46-52 66s-42 36-66 52l-32-54-28 16 32 54c-50 26-104 42-162 44v-64h-32v64c-58-2-112-18-162-44l32-54-28-16-32 54c-24-16-46-32-66-52s-38-42-52-66l56-32-16-26-56 30c-26-50-42-104-44-162h64v-32h-64c2-62 22-122 52-176h-72c-28 58-44 124-44 192 0 248 200 448 448 448z" />
<glyph unicode="&#xf2b4;" glyph-name="ion-spoon" horiz-adv-x="256" d="M256 576c0 128-52 256-128 256s-128-128-128-256v0c2-50 32-108 74-128l2-2c6-4 20-12 20-20 0 0-32-398-32-420s8-40 20-52 28-18 44-18v0 0c16 0 32 6 44 18s20 26 20 52-32 420-32 420c0 8 14 16 20 20l2 2c44 20 74 76 74 128z" />
</font>
</defs>
</svg>
