<?xml version="1.0" standalone="no"?>
<!DOCTYPE svg PUBLIC "-//W3C//DTD SVG 1.1//EN" "http://www.w3.org/Graphics/SVG/1.1/DTD/svg11.dtd" >
<svg xmlns="http://www.w3.org/2000/svg">
<metadata>
Created by FontForge 20120731 at Thu Apr 14 18:01:53 2016
 By admin
</metadata>
<defs>
<font id="iconfont" horiz-adv-x="1024" >
  <font-face 
    font-family="iconfont"
    font-weight="500"
    font-stretch="normal"
    units-per-em="1024"
    panose-1="2 0 6 3 0 0 0 0 0 0"
    ascent="896"
    descent="-128"
    x-height="792"
    bbox="0 -128 1387 896"
    underline-thickness="50"
    underline-position="-100"
    unicode-range="U+0078-E65C"
  />
<missing-glyph horiz-adv-x="374" 
d="M34 0v682h272v-682h-272zM68 34h204v614h-204v-614z" />
    <glyph glyph-name=".notdef" horiz-adv-x="374" 
d="M34 0v682h272v-682h-272zM68 34h204v614h-204v-614z" />
    <glyph glyph-name=".null" horiz-adv-x="0" 
 />
    <glyph glyph-name="nonmarkingreturn" horiz-adv-x="341" 
 />
    <glyph glyph-name="x" unicode="x" horiz-adv-x="1001" 
d="M281 543q-27 -1 -53 -1h-83q-18 0 -36.5 -6t-32.5 -18.5t-23 -32t-9 -45.5v-76h912v41q0 16 -0.5 30t-0.5 18q0 13 -5 29t-17 29.5t-31.5 22.5t-49.5 9h-133v-97h-438v97zM955 310v-52q0 -23 0.5 -52t0.5 -58t-10.5 -47.5t-26 -30t-33 -16t-31.5 -4.5q-14 -1 -29.5 -0.5
t-29.5 0.5h-32l-45 128h-439l-44 -128h-29h-34q-20 0 -45 1q-25 0 -41 9.5t-25.5 23t-13.5 29.5t-4 30v167h911zM163 247q-12 0 -21 -8.5t-9 -21.5t9 -21.5t21 -8.5q13 0 22 8.5t9 21.5t-9 21.5t-22 8.5zM316 123q-8 -26 -14 -48q-5 -19 -10.5 -37t-7.5 -25t-3 -15t1 -14.5
t9.5 -10.5t21.5 -4h37h67h81h80h64h36q23 0 34 12t2 38q-5 13 -9.5 30.5t-9.5 34.5q-5 19 -11 39h-368zM336 498v228q0 11 2.5 23t10 21.5t20.5 15.5t34 6h188q31 0 51.5 -14.5t20.5 -52.5v-227h-327z" />
    <glyph glyph-name="uniE626" unicode="&#xe626;" 
d="M914 116h-349l156 -156q7 -7 7 -17t-7 -17t-17 -7t-17 7l-150 150v-146q0 -10 -7.5 -17t-17.5 -7t-17 7t-7 17v146l-150 -150q-7 -7 -17 -7t-17.5 7t-7.5 17t8 17l156 156h-349q-29 0 -50 23t-21 55v656h944v-656q0 -32 -20.5 -55t-49.5 -23zM915 698h-805v-435
q0 -28 17.5 -47.5t42.5 -19.5h685q25 0 42.5 19.5t17.5 47.5v435zM566 459h278v-30h-278v30zM566 538h278v-30h-278v30zM442 325q-51 -40 -115.5 -34t-105.5 55q-43 51 -37 116t56 107t115.5 36.5t107.5 -55.5q29 -35 36 -79l-161 -23zM743 349h-177v31h177v-31z" />
    <glyph glyph-name="uniE627" unicode="&#xe627;" 
d="M460 -73q-51 46 -106 94q-56 50 -104 91q-56 47 -112 93q-11 -1 -22 -1q-9 -1 -18 -1h-17q-27 0 -43.5 16t-16.5 39v247h1l-1 1q0 28 17 45.5t43 17.5h56q90 77 164 137q31 27 61.5 52t54.5 46q25 21 42 34q16 14 20 17q30 21 48 19t28.5 -17.5t14.5 -38t4 -41.5v-795
q0 -19 -7 -40t-21.5 -33t-36 -10t-49.5 28zM777 510q20 -28 32.5 -57t12.5 -71q0 -39 -13 -70.5t-32 -56.5q-8 -11 -17 -19.5t-23 -8.5q-17 0 -29.5 13t-12.5 31q0 7 3 15h-1q5 11 12 21t13.5 20t10.5 23.5t4 31.5t-4 31.5t-10.5 24t-13.5 20.5t-11 21q-3 7 -3 15
q0 18 12.5 31t29.5 13q14 0 23 -8.5t17 -19.5zM832 69q-12 -8 -28 -8q-19 0 -33.5 14t-14.5 34q0 21 17 36q1 1 2 1.5t2 1.5l1 1q27 19 50.5 44.5t41.5 55t27.5 63.5t9.5 71q0 73 -37 134t-93 100q-21 15 -21 39q0 20 14.5 34t33.5 14q17 0 30 -10q36 -26 67.5 -60t54 -73.5
t35 -84.5t12.5 -93q0 -50 -12.5 -95t-35.5 -85t-54.5 -74t-68.5 -60z" />
    <glyph glyph-name="uniE628" unicode="&#xe628;" 
d="M827 304l-7 3l6 4q66 51 66 134q0 70 -50.5 120t-121.5 50t-121 -50t-50 -120q0 -83 66 -134l5 -4l-6 -3q-83 -33 -132.5 -105.5t-49.5 -160.5v-58q0 -10 7.5 -17.5t17.5 -7.5h526q11 0 18.5 7.5t7.5 17.5v58q0 88 -49.5 160.5t-132.5 105.5zM480 338q-32 55 -32 120
q0 86 55.5 151.5t138.5 80.5q-49 60 -120 94t-152 34q-96 0 -178 -47.5t-129.5 -129.5t-47.5 -178q0 -137 92.5 -238.5t228.5 -114.5q11 70 49 129t95 99zM404 425l-177 -177l-74 54l154 155v250h97v-282z" />
    <glyph glyph-name="uniE629" unicode="&#xe629;" 
d="M917 822h-813q-39 0 -66.5 -27.5t-27.5 -66.5v-687q0 -39 27.5 -66.5t66.5 -27.5h813q39 0 66.5 27.5t27.5 66.5v687q0 39 -27.5 66.5t-66.5 27.5zM164 588q0 26 18.5 44t43.5 18h188q26 0 44.5 -18t18.5 -44v-250q0 -26 -18.5 -44.5t-44.5 -18.5h-188q-25 0 -43.5 18.5
t-18.5 44.5v250zM826 119h-631q-13 0 -22 9t-9 22t9 22t22 9h631q13 0 22 -9t9 -22t-9 -22t-22 -9zM826 275h-250q-13 0 -22.5 9.5t-9.5 22t9.5 22t22.5 9.5h250q13 0 22 -9.5t9 -22t-9 -22t-22 -9.5zM826 431h-250q-13 0 -22.5 9.5t-9.5 22.5t9.5 22t22.5 9h250q13 0 22 -9
t9 -22t-9 -22.5t-22 -9.5zM826 588h-250q-13 0 -22.5 9t-9.5 22t9.5 22t22.5 9h250q13 0 22 -9t9 -22t-9 -22t-22 -9z" />
    <glyph glyph-name="uniE62A" unicode="&#xe62a;" 
d="M190.5 424q52.5 0 87.5 37t35 92q0 52 -36.5 90.5t-86.5 38.5q-52 0 -87 -37t-35 -92t35 -92t87.5 -37zM436 765v-759h573v759h-573zM960 82h-475v87h478v-87h-3zM960 255h-475v86h478v-86h-3zM960 427h-475v86h478v-86h-3zM960 600h-475v86h478v-86h-3zM190.5 384
q-72.5 0 -124 -52.5t-51.5 -126.5v-133h351v133q0 74 -51.5 126.5t-124 52.5z" />
    <glyph glyph-name="uniE62B" unicode="&#xe62b;" 
d="M341 245q0 73 28 140h-212q-6 0 -6 6v69q0 6 6 6h235q6 0 6 -6v-21q43 69 112 112h-353q-6 0 -6 5v70q0 6 6 6h427q6 0 6 -6v-38q54 18 111 18q13 0 25 -1v192q0 11 -7.5 19t-19.5 8h-657q-11 0 -19 -8t-8 -19v-825q0 -11 8 -19t19 -8h460q-74 50 -117.5 129t-43.5 171z
M289 225q0 -6 -6 -6h-126q-6 0 -6 6v70q0 6 6 6h126q6 0 6 -6v-70zM701.5 546q-124.5 0 -213 -88t-88.5 -212.5t88.5 -213t213 -88.5t213 88.5t88.5 213t-88.5 212.5t-213 88zM821 262v-39h-95v-53h95v-40h-95v-78h-49v78h-99v40h99v53h-99v39h83l-91 166h55q3 -5 38.5 -78
t36.5 -76l81 154h52l-94 -166h82z" />
    <glyph glyph-name="uniE62C" unicode="&#xe62c;" horiz-adv-x="1026" 
d="M989 832l-37 37q-3 1 -8 2t-19.5 2t-28 -0.5t-30.5 -8.5t-29 -20l-189 -193l-522 78l-66 -62l390 -226l-143 -135l-243 -17l-45 -16l242 -136l132 -246l20 45l17 230q403 411 563 571q14 18 13 39t-9 39l-8 17v0zM598 289l185 -353l54 58l-46 472l-193 -177v0z" />
    <glyph glyph-name="uniE62D" unicode="&#xe62d;" 
d="M674 211l-14 -15q-9 -9 -22 -9t-23 8l-165 142q-10 9 -16 24t-6 28l18 273q0 13 9.5 22t22.5 9h20q13 0 22.5 -9t10.5 -22l14 -224q1 -30 22 -54l109 -128q8 -10 7.5 -23t-9.5 -22zM513 878q-100 0 -191.5 -39t-157.5 -105.5t-105 -158t-39 -191.5t39 -191.5t105 -158
t157.5 -105.5t192 -39t192 39t157.5 105.5t105 158t39 191.5t-39 191.5t-105 158t-157.5 105.5t-192.5 39z" />
    <glyph glyph-name="uniE635" unicode="&#xe635;" 
d="M897 202q-3 2 -8.5 5t-21.5 15.5t-30 28.5t-30.5 44t-27.5 61.5t-17 82t-2 103.5q0 4 -0.5 10.5t-5 25.5t-11 37t-21 41.5t-33 42t-48 34.5t-66.5 24v3q0 28 -20 48t-48.5 20t-48.5 -20t-20 -48v-2q-10 -3 -23 -7t-41 -20t-50 -37.5t-41 -62t-22 -89.5q1 -5 1 -15
t-1.5 -39t-5.5 -57t-14 -64.5t-25 -67t-40.5 -59t-57.5 -44.5l-3 -3q-2 -2 -6 -9t-5.5 -14t0.5 -16.5t8 -17.5q2 -4 6 -9.5t23.5 -19.5t47.5 -25t83 -20t125 -9q1 -46 34 -78t79.5 -32t79.5 32t34 78h22q5 1 13.5 1t33.5 2t48.5 5.5t53 11t52.5 17t42 24.5t25 34l1 2
q1 2 1.5 5t1 7.5t-0.5 9.5t-3 10t-6 10.5t-11 9.5z" />
    <glyph glyph-name="uniE638" unicode="&#xe638;" 
d="M922 -128h-820q-42 0 -72 30t-30 72v820q0 42 30 72t72 30h820q42 0 72 -30t30 -72v-820q0 -42 -30 -72t-72 -30zM831 405q-1 14 -15 19l-60 21q-13 5 -18 19l-10 23q-6 13 0 26l27 58q7 13 -3 24l-29 29q-11 10 -24 3l-58 -27q-13 -6 -26 0l-23 10q-14 5 -19 18l-21 60
q-5 14 -19 15q-9 1 -21 1l-21 -1q-14 -1 -19 -15l-21 -60q-5 -13 -19 -18l-23 -10q-13 -6 -26 0l-58 27q-13 7 -24 -3l-29 -29q-10 -11 -3 -24l27 -58q6 -13 0 -26l-10 -23q-5 -14 -18 -19l-60 -21q-14 -5 -15 -19q-1 -9 -1 -21l1 -21q1 -14 15 -19l60 -21q14 -5 18 -19
l10 -23q6 -13 0 -26l-27 -58q-7 -13 3 -24l29 -29q11 -10 24 -3l58 27q13 6 26 0l23 -10q14 -5 19 -18l21 -60q5 -14 19 -15q9 -1 21 -1l21 1q14 1 19 15l21 60q5 14 19 18l23 10q13 6 26 0l58 -27q13 -7 24 3l29 29q10 11 3 24l-27 58q-6 13 0 26l10 23q5 14 18 19l60 21
q14 5 15 19q1 9 1 21zM512 239q-60 0 -102.5 42.5t-42.5 102.5t42.5 102.5t102.5 42.5t102.5 -42.5t42.5 -102.5t-42.5 -102.5t-102.5 -42.5zM512 449q-27 0 -46 -19t-19 -46t19 -46t46 -19t46 19t19 46t-19 46t-46 19z" />
    <glyph glyph-name="uniE639" unicode="&#xe639;" 
d="M777 562h-518q-5 0 -8.5 -3.5t-3.5 -8.5v-53h541v53q0 5 -3 8.5t-8 3.5zM247 206q0 -5 3.5 -8.5t8.5 -3.5h518q5 0 8 3.5t3 8.5v192h-541v-192zM548 290h164q9 0 9 -9q0 -4 -2.5 -6.5t-6.5 -2.5h-164q-8 0 -8 9t8 9zM854 831h-683q-44 0 -75 -31t-31 -75v-683
q0 -44 31 -75t75 -31h683q44 0 75 31t31 75v683q0 44 -31 75t-75 31zM832 206q0 -23 -16 -40t-39 -17h-518q-23 0 -39.5 17t-16.5 40v344q0 24 16.5 41t39.5 17h518q23 0 39 -17t16 -41v-344z" />
    <glyph glyph-name="uniE63A" unicode="&#xe63a;" 
d="M140 435v-490l248 286zM624 254l261 206l-151 104l-176 -161v143q-70 -11 -104.5 -37t-33.5 -63t30 -83.5t85 -101.5q-37 24 -70 46q-38 36 -60.5 73t-26.5 73t13 66t65 51.5t123 29.5v-121l195 176l-197 173l1 -103q-46 -6 -86.5 -17.5t-77.5 -30.5t-61.5 -43t-34 -57.5
t0.5 -72.5t46.5 -90t99.5 -107q-185 130 -197 239l-125 -86l262 -207zM639 231l248 -286v490zM416 228l-248 -283h692l-250 281z" />
    <glyph glyph-name="uniE63B" unicode="&#xe63b;" 
d="M933 636q-16 4 -41.5 11t-81 28t-85.5 41q-6 5 -32.5 23.5t-38.5 25.5t-35.5 19t-47.5 16.5t-53 4.5q-28 0 -52.5 -4.5t-50.5 -17t-36.5 -18t-41 -26.5t-34.5 -23q-30 -20 -83 -40t-91 -30l-38 -10v-118v-2v-1q0 -83 26 -161.5t67.5 -136.5t90.5 -107.5t97.5 -81
t87 -48.5t58.5 -17q27 0 67 17t87 48.5t93 80.5t83.5 108t61 137t23.5 161v1v2v118zM697 407q0 -11 -7.5 -18.5t-18.5 -7.5h-108v-102q0 -11 -7.5 -19t-18.5 -8h-16q-11 0 -18.5 8t-7.5 19v102h-109q-11 0 -18.5 7.5t-7.5 18.5v12q0 11 7.5 19t18.5 8h109v102q0 10 7.5 18
t18.5 8h16q11 0 18.5 -8t7.5 -18v-102h108q11 0 18.5 -8t7.5 -19v-12z" />
    <glyph glyph-name="uniE63C" unicode="&#xe63c;" 
d="M922 -128h-820q-42 0 -72 30t-30 72v820q0 42 30 72t72 30h820q42 0 72 -30t30 -72v-820q0 -42 -30 -72t-72 -30zM678.5 128q26.5 0 45 18.5t18.5 45.5t-18.5 45.5t-45 18.5t-45.5 -18.5t-19 -45.5t19 -45.5t45.5 -18.5zM320 128q27 0 45.5 18.5t18.5 45.5t-18.5 45.5
t-45.5 18.5t-45.5 -18.5t-18.5 -45.5t18.5 -45.5t45.5 -18.5zM845 614q0 11 -7.5 18.5t-18.5 7.5h-409q-11 0 -18.5 -7.5t-7.5 -18.5v-76h-90q-8 0 -16 -4.5t-10.5 -7.5t-11.5 -14l-57 -102q-20 -27 -20 -52v-128q0 -10 7.5 -17.5t18.5 -7.5h25q5 33 30.5 55.5t59.5 22.5
t59.5 -22.5t30.5 -55.5h179q4 33 29.5 55.5t60 22.5t59.5 -22.5t30 -55.5h51q11 0 18.5 7.5t7.5 17.5v384zM232 380l54 100q6 6 10 6h62v-128h-136q0 7 10 22z" />
    <glyph glyph-name="uniE63D" unicode="&#xe63d;" 
d="M689 631h98v13v108q0 12 -9 21t-23 9h-129h-2v-91q0 -26 19 -43t46 -17zM511 145v13q0 7 1 11h-215q-21 0 -39 14q-16 15 -16 36q0 22 16 37q15 15 39 15h253q36 51 87 77q53 29 120 29h14q3 0 8 -0.5t7 -0.5v203h-126q-24 0 -42 10q-19 12 -28 25.5t-17 32.5
q-5 21 -5 34v102h-245h-87h-70q-13 0 -24 -9q-9 -9 -9 -21v-75v-29v-501v-103q0 -12 9.5 -21.5t23.5 -9.5h77h2h309q-21 27 -32 62q-11 29 -11 69zM258 461q14 14 39 14h327q21 0 39 -14q16 -17 16 -36q0 -22 -16 -37q-17 -15 -39 -15h-327q-22 0 -39 15q-16 15 -16 37
t16 36zM937 214q-16 34 -41 57q-27 25 -60 39q-37 15 -75 15q-39 0 -74 -15q-33 -13 -60 -39q-25 -23 -41 -57q-16 -32 -16 -70q0 -36 16 -70t41 -58q26 -25 60 -39q37 -14 74 -14q38 0 75 14q32 13 60 39q25 24 41 58q15 32 15 70t-15 70zM894 217l-177 -177q-2 -2 -5 -2
t-5 2l-80 69q-2 2 -2 4t2 4l24 22q2 2 5 2q1 0 6 -2l45 -40q2 -2 5 -2t5 2l142 148q2 2 5 2t5 -2l25 -23q2 -2 2 -4q-1 0 -1.5 -1t-0.5 -2zM894 217zM336 239z" />
    <glyph glyph-name="uniE63E" unicode="&#xe63e;" 
d="M464 200q0 -52 48 -51q17 0 28 4.5t15.5 13.5t6 16t1.5 17h-9h-48h-42zM626 479q0 8 -1.5 17.5t-8.5 24.5t-18.5 26.5t-34 20t-51.5 8.5q-31 0 -54.5 -11t-34.5 -26.5t-17 -30.5t-7 -26l-1 -11v-172l-33 -66h291l-30 53v193zM816 896h-608q-86 0 -147 -61t-61 -147v-608
q0 -86 61 -147t147 -61h608q86 0 147 61t61 147v608q0 86 -61 147t-147 61zM512 116q-35 0 -55 24t-26 60h-119l53 105v168q0 5 1 12t6.5 27t15.5 36t31 32.5t50 22.5q2 22 13 35.5t30 13.5t30 -13.5t13 -34.5q33 -7 55.5 -23.5t32 -36.5t13 -34.5t3.5 -25.5v-189l53 -95
h-118q-10 -83 -82 -84z" />
    <glyph glyph-name="uniE63F" unicode="&#xe63f;" horiz-adv-x="1061" 
d="M0 -128l1060 3v592h-1060v-595zM713 896l-94 -167h-619v-181h1060v348h-347z" />
    <glyph glyph-name="uniE640" unicode="&#xe640;" 
d="M405 594h183q14 0 14 13.5t-14 13.5h-183q-8 0 -11.5 -6.5t0 -13.5t11.5 -7zM331 399h331q21 0 18 23l-17 121q-2 12 -7.5 18t-18.5 6h-280q-14 0 -19.5 -6t-7.5 -18l-17 -121q-3 -23 18 -23zM369 313h-51q-5 0 -8.5 -3.5t-3.5 -8.5v-22q0 -5 3.5 -8.5t8.5 -3.5h51
q5 0 8.5 3.5t3.5 8.5v22q0 5 -3.5 8.5t-8.5 3.5zM512 896q-104 0 -199 -40.5t-163.5 -109t-109 -163.5t-40.5 -199t40.5 -199t109 -163.5t163.5 -109t199 -40.5t199 40.5t163.5 109t109 163.5t40.5 199t-40.5 199t-109 163.5t-163.5 109t-199 40.5zM499 663h-3h-2h5z
M719 187h-37v-36q0 -20 -15.5 -28.5t-31 0t-15.5 28.5v36h-247v-36q0 -20 -15.5 -28.5t-30.5 0t-15 28.5v36h-38v230l14 166q4 20 19 31.5t43 22.5q23 10 67 18t80 8q35 0 79.5 -8t66.5 -18q19 -8 29 -13t20 -16t13 -25l14 -166v-230zM675 313h-51q-5 0 -8.5 -3.5t-3.5 -8.5
v-22q0 -5 3.5 -8.5t8.5 -3.5h51q5 0 8.5 3.5t3.5 8.5v22q0 5 -3.5 8.5t-8.5 3.5z" />
    <glyph glyph-name="uniE641" unicode="&#xe641;" 
d="M512 896q-139 0 -257 -68.5t-186.5 -186.5t-68.5 -257t68.5 -257t186.5 -186.5t257 -68.5t257 68.5t186.5 186.5t68.5 257t-68.5 257t-186.5 186.5t-257 68.5zM494 531q0 -35 -21.5 -62t-53.5 -35v-407h-50v407q-32 8 -53 35t-21 62v178h49v-178q0 -29 25 -43v221h50
v-221q25 14 25 43v178h50v-178zM643 195v39q37 5 58.5 63t21.5 155t-21.5 155t-58.5 63l-1 -635l-50 1l2 674l49 -1q36 -2 61 -24.5t38.5 -61t19 -80t5.5 -91.5t-5.5 -91.5t-19 -80t-39 -61t-60.5 -24.5z" />
    <glyph glyph-name="uniE642" unicode="&#xe642;" 
d="M220 56v25q0 5 -3.5 8.5t-8.5 3.5h-170q-5 0 -8.5 -3.5t-3.5 -8.5v-25q0 -5 3.5 -8.5t8.5 -3.5h170q5 0 8.5 3.5t3.5 8.5zM38 676h170q5 0 8.5 3.5t3.5 8.5v24q0 6 -3.5 9.5t-8.5 3.5h-170q-5 0 -8.5 -3.5t-3.5 -9.5v-24q0 -5 3.5 -8.5t8.5 -3.5zM38 360h170q5 0 8.5 3.5
t3.5 8.5v25q0 5 -3.5 8.5t-8.5 3.5h-170q-5 0 -8.5 -3.5t-3.5 -8.5v-25q0 -5 3.5 -8.5t8.5 -3.5zM949 870h-778q-20 0 -34 -14t-14 -34v-49h121q10 0 17.5 -7t7.5 -17v-97q0 -10 -7.5 -17.5t-17.5 -7.5h-121v-170h121q10 0 17.5 -7t7.5 -17v-97q0 -10 -7.5 -17t-17.5 -7
h-121v-170h121q10 0 17.5 -7.5t7.5 -17.5v-97q0 -10 -7.5 -17t-17.5 -7h-121v-49q0 -20 14 -34t34 -14h778q20 0 34 14t14 34v875q0 20 -14 34t-34 14zM788 228q-6 -5 -19 -12l-2 -2h-341l-2 2q-13 7 -19 12q-15 13 -15 32v3q0 14 2 21q5 18 29 37q23 18 61 34q19 8 41 16
q11 4 17 18q5 11 3 18l-1 1q-31 38 -39 74q-8 41 3 76q16 54 66 66q7 2 15 3h20q7 -1 14 -3q50 -12 67 -66q10 -35 2 -76q-7 -36 -39 -74l-1 -1q-2 -8 3 -18q6 -14 17 -18q22 -8 41 -16q38 -16 61 -34q24 -19 29 -37q2 -7 2 -21v-3q0 -19 -15 -32z" />
    <glyph glyph-name="uniE643" unicode="&#xe643;" horiz-adv-x="1026" 
d="M512 896q-139 0 -257 -68.5t-186.5 -186.5t-68.5 -257t68.5 -257t186.5 -186.5t257 -68.5t257 68.5t186.5 186.5t68.5 257t-68.5 257t-186.5 186.5t-257 68.5zM766 610q-58 -9 -69 -51l-166 -447h-63l-144 444q-15 60 -66 54v30h255v-30q-75 0 -69 -30q-12 9 99 -321h3
q6 13 18 48q108 291 90 261q0 42 -63 42v30h175v-30z" />
    <glyph glyph-name="uniE644" unicode="&#xe644;" 
d="M512 783q-108 0 -200 -53.5t-145.5 -145.5t-53.5 -200t53.5 -200t145.5 -145.5t200 -53.5t200 53.5t145.5 145.5t53.5 200t-53.5 200t-145.5 145.5t-200 53.5zM649 243q-50 -50 -120 -57.5t-127 29.5h-47q-7 0 -12 4.5t-5 11.5v47v1q-36 57 -28.5 126.5t56.5 119.5
q59 59 141.5 59t141 -58.5t58.5 -141.5t-58 -141zM429 359q-8 0 -14 6t-6 14.5t6 14.5t14 6t14 -6t6 -14.5t-6 -14.5t-14 -6zM508 359q-9 0 -15 6t-6 14.5t6 14.5t14.5 6t14.5 -6t6 -14.5t-6 -14.5t-14 -6zM586 359q-8 0 -14 6t-6 14.5t6 14.5t14 6t14 -6t6 -14.5t-6 -14.5
t-14 -6z" />
    <glyph glyph-name="uniE645" unicode="&#xe645;" 
d="M583 709q2 -4 16.5 -28t36 -61t48.5 -83.5t56 -95.5q28 -48 57 -96q28 -48 51.5 -88.5t40 -69t23.5 -39.5q12 -20 15 -40.5t-2.5 -37t-19 -26.5t-32.5 -9h-42h-77h-102h-116h-117h-108h-88h-55q-31 0 -48 10.5t-22.5 27.5t-1 36.5t15.5 36.5q6 9 22.5 37t40.5 67
q20 34 53 88q28 47 58 97q28 48 57 97q27 46 50 84q22 38 37 62l17 29q11 18 29.5 27.5t38.5 9.5t38 -9t30 -26zM562 549q0 10 -4.5 18.5t-11.5 15.5t-16.5 11t-19.5 4q-19 0 -35 -15t-16 -33v-215q0 -19 16 -34t35 -15q20 0 36 14.5t16 32.5v216zM510 238q-21 0 -36.5 -15
t-15.5 -36t15.5 -36.5t36.5 -15.5t36 15.5t15 36.5t-15 36t-36 15zM510 238z" />
    <glyph glyph-name="uniE646" unicode="&#xe646;" 
d="M39 191.5q39 -93.5 110.5 -165t165 -110.5t195 -39t195 39t165 110.5t110.5 165t39 195t-39 195t-110.5 165t-165 110.5t-195 39t-195 -39t-165 -110.5t-110.5 -165t-39 -195t39 -195zM615 197q-44 13 -92 41q-57 33 -108 83q-45 44 -74 90q-24 37 -33 71q-7 24 -5 42
q1 15 10 25q26 29 28 31q12 12 28 14q15 1 31 -11q28 -21 45 -51q13 -26 -5 -50l-15 -18q-9 -9 -4 -22q4 -12 15 -27q15 -19 41 -43q38 -34 67 -54q22 -15 38 -20q6 -1 13 -2q9 0 15 7q13 15 18 20q20 20 46 11q38 -14 62 -41q16 -18 9 -39q-4 -12 -11 -22q-11 -13 -25 -29
q-8 -9 -25 -12q-1 0 -10 -1q-27 -2 -59 7z" />
    <glyph glyph-name="uniE647" unicode="&#xe647;" 
d="M512 -34q-10 0 -19 5l-31 21q-20 13 -67 48t-90 72t-93.5 91t-87.5 106.5t-62 115.5t-25 122q0 106 75 180.5t180 74.5q69 0 127.5 -34t92.5 -92q34 58 92.5 92t127.5 34q105 0 180 -74.5t75 -180.5q0 -59 -25 -122.5t-62 -115.5t-88 -106t-94 -91t-90 -72t-66 -48
t-32 -21q-8 -5 -18 -5z" />
    <glyph glyph-name="uniE648" unicode="&#xe648;" 
d="M685 397zM998 480q18 13 22 23.5t4 27.5v154q0 29 -25 53t-58 24h-858q-34 -5 -58.5 -27t-24.5 -50v-147q0 -17 1 -25t7 -17.5t18 -15.5q35 -12 62 -36.5t27 -59.5q0 -25 -7.5 -43.5t-23 -30t-25 -16.5t-27.5 -12q-17 -9 -24.5 -24t-7.5 -28v-147q0 -29 25 -53t58 -24
h858q34 0 58.5 22t24.5 55v147q0 20 -5.5 31t-20.5 21q-47 19 -65 41t-18 61q-5 33 14.5 54.5t68.5 41.5zM691 563l-89 -89h44q15 0 27 -12t12 -26.5t-12 -26.5t-27 -12h-96v-58h96q15 0 27 -12t12 -26.5t-12 -26.5t-27 -12h-96v-83q0 -14 -12 -26t-26 -12t-26 12t-12 26v83
h-96q-15 0 -27 12t-12 26.5t12 26.5t27 12h96v58h-96q-15 0 -27 12t-12 26.5t12 26.5t27 12h44l-89 89q-21 21 0 51q9 10 25 10t26 -10l128 -128l128 128q10 10 26 10t25 -10q21 -30 0 -51z" />
    <glyph glyph-name="uniE649" unicode="&#xe649;" horiz-adv-x="1025" 
d="M833 768h-64v32q0 13 -9.5 22.5t-22.5 9.5t-22.5 -9.5t-9.5 -22.5v-32h-384v32q0 13 -9.5 22.5t-23 9.5t-22.5 -9.5t-9 -22.5v-32h-64q-53 0 -90.5 -37.5t-37.5 -90.5v-128v-448q0 -53 37.5 -91t90.5 -38h640q53 0 90.5 38t37.5 91v448v128q0 53 -37.5 90.5t-90.5 37.5z
M513 320h-96h-32v64h32h96h64h32h32v-32v-64v-32h-64v-64h-64v-128h-64v128h64v64h64v32v32h-64zM129 512v128q0 26 18.5 45t45.5 19h64v-32q0 -13 9 -22.5t22.5 -9.5t23 9.5t9.5 22.5v32h384v-32q0 -13 9.5 -22.5t22.5 -9.5t22.5 9.5t9.5 22.5v32h64q26 0 45 -19t19 -45
v-128h-768z" />
    <glyph glyph-name="uniE64A" unicode="&#xe64a;" horiz-adv-x="1025" 
d="M497 860q6 12 15 12t15 -12l134 -271q6 -13 19.5 -23t27.5 -12l299 -43q14 -2 16.5 -10.5t-7.5 -17.5l-216 -211q-10 -10 -15.5 -26.5t-2.5 -29.5l51 -298q2 -14 -5 -19t-19 2l-268 140q-12 7 -29 7t-29 -7l-268 -140q-12 -7 -19 -2t-5 19l51 298q3 13 -2.5 29.5
t-15.5 26.5l-216 211q-10 9 -7.5 17.5t16.5 10.5l299 43q14 2 27.5 12t19.5 23z" />
    <glyph glyph-name="uniE64B" unicode="&#xe64b;" horiz-adv-x="1025" 
d="M896 770h-768q-53 0 -90.5 -37.5t-37.5 -90.5v-448q0 -53 37.5 -90.5t90.5 -37.5h128v-128l192 128h448q53 0 90.5 37.5t37.5 90.5v448q0 53 -37.5 90.5t-90.5 37.5zM320 258h-64v64h-64v64h-64v-128h-64v320h64v-64h64v-64h64v128h64v-320zM576 514h-128v-64h128v-64
h-128v-64h128v-64h-128h-64v64v64v64v64v64h64h128v-64zM960 322h-64v-64h-64v128h-64v-128h-64v64h-64v256h64v-192h64v192h64v-192h64v192h64v-256z" />
    <glyph glyph-name="uniE64C" unicode="&#xe64c;" 
d="M768 883q-41 0 -93 -25t-93 -71q-25 26 -70 26q-47 0 -64 -26q-44 44 -93.5 70t-92.5 26q-39 0 -64 -22.5t-25 -60.5t14 -68.5t35.5 -46.5t42 -24t36.5 -8h435q16 0 36.5 8t41.5 24t35.5 46.5t14.5 68.5q-5 35 -32 59t-64 24zM397 717h-96q-1 1 -7 6t-12 10.5t-13 14
t-12.5 18.5t-6.5 21q0 26 12 26q26 0 65.5 -20.5t75.5 -56.5q0 -13 -6 -19zM781 787q-5 -22 -26 -43t-32 -21h-89q-7 0 -7 7v6q32 37 71 57t70 20q13 -7 13 -26zM262 819zM915 614h-262h-275h-263q-29 0 -49.5 -20.5t-20.5 -49.5v-115q0 -19 19 -19h314h275h313q20 0 20 19
v115q0 29 -21 49.5t-50 20.5zM429 365h-45v0h-179h-90q-19 0 -19 -19v-391q0 -29 21 -49.5t49 -20.5h212v0h44q20 0 20 19v448q4 5 0 9t-13 4zM915 365h-83h-230q-11 0 -18.5 -5t-7.5 -14v-448v0q0 -20 19 -20h231h32q28 0 49 21t21 50v397q10 19 -13 19z" />
    <glyph glyph-name="uniE64D" unicode="&#xe64d;" 
d="M384 416h-288q-38 0 -67 29t-29 67v288q0 38 29 67t67 29h288q38 0 67 -29t29 -67v-288q0 -38 -29 -67t-67 -29zM384 -128h-288q-38 0 -67 29t-29 67v288q0 38 29 67t67 29h288q38 0 67 -29t29 -67v-282q0 -42 -28.5 -72t-67.5 -30zM787 -128q-100 0 -171.5 70t-71.5 167
q0 100 70 168.5t167 68.5q100 0 168.5 -70t68.5 -167q4 -96 -65 -166.5t-166 -70.5zM928 416h-288q-38 0 -67 29t-29 67v288q0 38 29 67t67 29h282q42 0 72 -28.5t30 -67.5v-288q0 -38 -29 -67t-67 -29z" />
    <glyph glyph-name="uniE64E" unicode="&#xe64e;" 
d="M489 644h252v-123h-252v123zM836 896h-649q-78 0 -132.5 -54.5t-54.5 -132.5v-650q0 -78 54.5 -132.5t132.5 -54.5h650q77 0 132 55t55 132v650q-1 78 -55.5 132.5t-132.5 54.5zM315 35h-70v398q-30 -40 -61 -75l-24 76q105 128 156 302l65 -30q-26 -86 -65 -160v-511h-1
zM852 48h-73q-164 1 -224 33q-61 31 -100 99q-34 -92 -78 -149l-45 57q79 121 107 318l69 -11q-9 -57 -27 -133q15 -40 43 -72q30 -34 67 -50v314h-172v255h392v-256h-150v-108h171v-66h-171v-158q44 -5 85 -7q64 0 118 2z" />
    <glyph glyph-name="uniE64F" unicode="&#xe64f;" 
d="M338 240q0 76 29 145h-219q-6 0 -6 6v72q0 6 6 6h243q6 0 6 -6v-22q45 71 116 115h-365q-6 0 -6 6v73q0 6 6 6h441q6 0 6 -6v-40q57 18 116 18h26v199q0 11 -8 19t-20 8h-680q-12 0 -20 -8t-8 -19v-854q0 -12 8 -20t20 -8h475q-76 51 -121 133t-45 177zM284 220
q0 -7 -6 -7h-130q-6 0 -6 7v72q0 6 6 6h130q6 0 6 -6v-72zM711 552q-129 0 -220 -91.5t-91 -220.5t91 -220t220 -91t220.5 91t91.5 220t-91.5 220.5t-220.5 91.5zM835 258v-40h-99v-56h99v-41h-99v-80h-50v80h-102v41h102v56h-102v40h85l-94 172h57q3 -6 40 -81t38 -79
l83 160h54l-97 -172h85z" />
    <glyph glyph-name="uniE650" unicode="&#xe650;" 
d="M826 283q41 0 76.5 -15.5t63.5 -42.5q27 -27 42.5 -62.5t15.5 -75.5q0 -41 -16 -77q-15 -35 -42 -62t-63 -42t-77 -15t-77 15q-36 16 -63 42q-27 27 -42.5 62.5t-15.5 76.5q0 40 16 75.5t42 62.5q27 27 63 42q36 16 77 16zM949 104q4 5 9 15q5 9 -2 16l-9 9q-6 7 -8 8
q-10 6 -17 2q-8 -5 -17 -13q-17 -17 -41 -40q-20 -19 -38 -37q-6 -6 -14 -8q-8 -1 -12 5l-8 9q-7 7 -12 13l-13 14q-7 9 -8 9q-5 5 -12 6.5t-14 -5.5l-5 -4q-3 -2 -7 -7l-7 -7l-4 -4q-14 -14 3 -33l15 -15l18 -20q16 -17 20 -21l17 -17q7 -7 20 -6.5t19 7.5q12 11 29 28
q14 15 33 34q12 11 35 33q13 13 30 29zM0 15q0 -24 18 -40.5t44 -16.5h564q-38 59 -38 129q0 98 69.5 168t168.5 70q49 0 94 -19v142h-62v368v61h-796v-61v-368h-62v-433v0zM123 755h64h524h86v-307h-674v307zM184 571h551v-61h-551v61zM184 693h551v-61h-551v61z" />
    <glyph glyph-name="uniE651" unicode="&#xe651;" 
d="M587 218v193q62 26 101 83.5t39 128.5q0 95 -65.5 162t-158 67t-158.5 -67t-66 -162q0 -71 39 -128.5t102 -83.5v-193h-346v-138h858v138h-345zM75 -55h857v46h-857v-46z" />
    <glyph glyph-name="uniE652" unicode="&#xe652;" 
d="M79 575h55q7 0 11.5 -5t4.5 -12v-35h-71v52zM908 299q11 2 20 -4t11 -17l38 -194q4 -18 -21 -22l-52 -9h-2v6q0 18 -12.5 30.5t-29.5 12.5q-14 0 -25 -8q0 1 -1 1.5t-1 1.5l-32 180q7 3 12 5l-11 66q-2 10 8 11q10 2 12 -8l10 -64q14 4 76 12zM860 88q11 0 19.5 -8.5
t8.5 -20.5t-8.5 -20t-20 -8t-20 8t-8.5 20t8.5 20.5t20.5 8.5zM615 775q27 0 46 -19t19 -46.5t-19 -46.5t-46 -19t-46.5 19t-19.5 46.5t19.5 46.5t46.5 19zM695 620l129 -208q7 -11 4 -23t-13 -19q-11 -6 -23 -3t-18 13l-88 140v-453q0 -15 -10.5 -25.5t-25.5 -10.5
q-14 0 -24.5 10.5t-10.5 25.5v274q0 8 -9 8t-9 -8v-274q0 -15 -10.5 -25.5t-25.5 -10.5q-14 0 -24.5 10.5t-10.5 25.5v274v210v24l-191 124q-10 6 -12.5 18.5t4.5 22.5q6 10 18.5 12.5t22.5 -3.5l182 -119h75h49q15 -1 21 -10zM79 119l208 1l1 -90h168l1 264l-63 78h37v49
h-77l-69 85l-206 2v-46h198l67 -88h-265v-255zM249 331h121v-40h-121v40z" />
    <glyph glyph-name="uniE653" unicode="&#xe653;" 
d="M999 9h-331q-11 0 -18.5 7.5t-7.5 18.5v127h255q10 0 17.5 7.5t7.5 17.5v26q0 11 -7.5 18t-17.5 7h-255v51h255q10 0 17.5 7.5t7.5 18.5v25q0 11 -7.5 18.5t-17.5 7.5h-255v50h255q10 0 17.5 7.5t7.5 18.5v25q0 11 -7.5 18.5t-17.5 7.5h-255v51h255q10 0 17.5 7.5
t7.5 17.5v26q0 10 -7.5 17.5t-17.5 7.5h-255v127q0 11 7.5 18.5t18.5 7.5h331q10 0 17.5 -7.5t7.5 -18.5v-712q0 -11 -7.5 -18.5t-17.5 -7.5zM592 313v-98l-1 -2v-26l1 -2v-271l-589 86v753l589 101v-258l-1 -1v-26l1 -2v-98q-1 -1 -1 -2v-25q0 -1 1 -2v-98l-1 -2v-26z
M476 564l-43 -189q-13 -54 -21 -118h-3q-10 52 -23 108l-57 199h-62l-59 -199q-10 -37 -23 -108h-3q-10 67 -20 118l-44 189h-60l91 -354h67l80 299h2q21 -92 24 -100l54 -199h69l91 354h-60z" />
    <glyph glyph-name="uniE654" unicode="&#xe654;" horiz-adv-x="1053" 
d="M996 783h-290q-20 0 -34 -14.5t-14 -34.5v-123h17h159h79q13 0 22 -14t9 -33t-9 -32.5t-22 -13.5h-79h-162h-14v-93h17h159h79q13 0 22 -13.5t9 -32.5t-9 -32.5t-22 -13.5h-79h-162h-14v-76h17h159h79q13 0 22 -13.5t9 -32.5t-9 -32.5t-22 -13.5h-79h-162h-14v-142
q0 -20 14 -34.5t34 -14.5h290q20 0 34.5 14.5t14.5 34.5v711q0 20 -14.5 34.5t-34.5 14.5zM176 448q-35 0 -53 -29q-17 -24 -17 -62q0 -37 17 -62q18 -30 52.5 -30t53.5 29q16 25 16 63t-16 62q-18 29 -53 29zM368 336h78l-39 94zM539 873l-484 -89q-20 -4 -34 -20.5
t-14 -37.5l2 -686q0 -20 14 -37t34 -21l483 -98q19 -4 33 7.5t14 31.5v910q0 20 -14 32t-34 8zM256 270q-29 -39 -80 -39t-81 39q-26 35 -26 87.5t26 86.5q30 39 81 39t80 -39q26 -34 26 -86.5t-26 -87.5zM489 234l-28 68h-107l-28 -68h-39l102 247h36l102 -247h-38z" />
    <glyph glyph-name="uniE655" unicode="&#xe655;" 
d="M512 896q-104 0 -199 -40.5t-163.5 -109t-109 -163.5t-40.5 -199t40.5 -199t109 -163.5t163.5 -109t199 -40.5t199 40.5t163.5 109t109 163.5t40.5 199t-40.5 199t-109 163.5t-163.5 109t-199 40.5zM512 317q-15 0 -29 7l-113 -113q-6 -6 -15.5 -6t-16 6.5t-6.5 15.5
t7 16l113 113q-7 14 -7 28q0 21 13.5 38.5t31.5 24.5v318q0 9 6.5 15.5t15.5 6.5t15.5 -6.5t6.5 -15.5v-318q18 -8 31.5 -25t13.5 -38q0 -28 -19.5 -47.5t-47.5 -19.5z" />
    <glyph glyph-name="uniE656" unicode="&#xe656;" 
d="M625 767q0 57 -31 88t-82 31q-46 0 -79.5 -31.5t-33.5 -87.5v-157h226v157zM505.5 685q-23.5 0 -40.5 16.5t-17 40t17 40t40.5 16.5t40 -16.5t16.5 -40t-16.5 -40t-40 -16.5zM808 666h-126v-56h21h9h10q3 0 8 -1t7 -3.5t2 -6.5v-6q0 -11 -13 -25.5t-23 -14.5h-31h-341
h-31q-15 0 -15 40v6v7q0 2 1.5 3l1.5 1h5h7h42v56h-147q-15 0 -19 -2.5t-4 -16.5v-726q0 -19 5 -34t18 -15h613q14 0 29 17t15 32v726q0 19 -44 19zM682 156h-113v-114h-114v114h-113v113h113v114h114v-114h113v-113z" />
    <glyph glyph-name="uniE657" unicode="&#xe657;" 
d="M934 -128h-842q-20 0 -34.5 14t-14.5 34v833q0 20 14.5 34t34.5 14h80v-48q0 -40 28.5 -68.5t69 -28.5t69 28.5t28.5 68.5v47h49v-49q0 -39 28.5 -67.5t69 -28.5t69 28.5t28.5 67.5v49h48v-49q0 -39 28.5 -67.5t69 -28.5t69 28.5t28.5 67.5v49h81q20 0 34 -14.5t14 -34.5
v-831q-1 -20 -15.5 -34t-33.5 -14zM804 529h-584q-19 0 -33.5 -14.5t-14.5 -34.5t14.5 -34t33.5 -14h584q19 0 33.5 14t14.5 34t-14.5 34.5t-33.5 14.5zM804 320h-584q-19 0 -33.5 -14t-14.5 -34t14.5 -34t33.5 -14h584q19 0 33.5 14t14.5 34t-14.5 34t-33.5 14zM812 112
h-599q-17 0 -29 -12t-12 -28t12 -28t29 -12h599q17 0 29 12t12 28q-1 16 -13 28t-28 12zM755 704q-20 0 -34 14.5t-14 34.5v95q0 20 14 34t34 14t34.5 -14t14.5 -34v-97q0 -19 -14.5 -33t-34.5 -14zM512 704q-20 0 -34 14.5t-14 34.5v95q0 20 14 34t34 14t34 -14t14 -34v-97
q1 -18 -13.5 -32.5t-34.5 -14.5zM270 704q-20 0 -34 14.5t-14 34.5v95q0 20 14 34t34 14t34 -14t14 -34v-97q0 -19 -14 -33t-34 -14z" />
    <glyph glyph-name="uniE658" unicode="&#xe658;" 
d="M510 809q116 0 213.5 -57t154.5 -155t57 -213t-57 -213t-154.5 -155t-213 -57t-213.5 57t-154.5 155t-56.5 213t56.5 213t154.5 155t213 57v0zM542 203v366q0 1 -1 3.5t-4.5 6.5t-8 6t-11.5 0.5t-15 -8.5l-98 -89h-108q-6 0 -9 -0.5t-6.5 -6.5t-3.5 -19v-157
q0 -9 6 -15.5t14 -6.5h101l105 -91q11 -11 25 -10.5t14 21.5v0zM744 372q2 48 -18.5 92t-59.5 77q-12 8 -25 -3.5t-6 -22.5q70 -58 66 -141q-4 -75 -68 -127q-9 -11 6 -22t24 -4q76 62 81 151v0zM616 377q-3 -46 -41 -80q-9 -11 4 -21.5t24 -2.5q50 43 53 103q3 67 -52 115
q-8 6 -17.5 2.5t-13 -11t0.5 -13.5q44 -38 42 -92v0zM616 377z" />
    <glyph glyph-name="uniE659" unicode="&#xe659;" 
d="M896 611l-492 -524l-336 315l78 39l247 -184l458 416q-62 74 -150.5 115.5t-188.5 41.5q-91 0 -173.5 -35.5t-142 -95t-95 -142t-35.5 -173.5t35.5 -173.5t95 -142t142 -95t173.5 -35.5t173.5 35.5t142 95t95 142t35.5 173.5q0 122 -62 227z" />
    <glyph glyph-name="uniE65A" unicode="&#xe65a;" horiz-adv-x="1387" 
d="M1152 704v192h-1152v-896h192v-128h1195v832h-235v0zM171 704v-618h-86v724h982v-106h-896v0zM1302 363h-1025v149h1025v-149zM1302 363z" />
    <glyph glyph-name="uniE65B" unicode="&#xe65b;" 
d="M512 832q-91 0 -173.5 -35t-142.5 -95t-95.5 -143t-35.5 -174t35.5 -174t95.5 -143t142.5 -95t173.5 -35t174 35t143 95t95.5 143t35.5 174t-35.5 174t-95.5 143t-143 95t-174 35zM496 729q5 1 6 3h20q22 -11 24 -13q27 -23 18 -55q-10 -34 -45 -38q-21 -3 -38 9t-21 33
q-4 20 6.5 37.5t29.5 23.5zM274 633q51 -34 153 -114q61 -47 117 -91q27 -21 20 -53q-6 -34 -40 -42q-33 -7 -54 20q-140 179 -180 235q-21 29 -31 46q-3 5 -4 9q8 -2 19 -10zM859 371l-1 -3q0 -3 1 -3v-8q-1 -5 -2 -16t-2 -16q-13 -75 -56 -138q-45 -65 -113 -104
q-60 -34 -125 -43q-4 0 -11.5 -0.5t-11.5 -1.5h-5q-1 1 -3 1q-4 0 -4 -1h-27q0 1 -4 1q-2 0 -3 -1h-8q-5 1 -15.5 2t-15.5 2q-94 17 -166 78q-64 55 -97 134q-17 40 -23 83v9q0 7 -1 11v8l1 3l-1 3v28q1 -1 1 1v3q-1 3 -1 4v5q0 1 3 22q7 45 25 87q4 11 15 16t22 1
q16 -5 23 -18.5t1 -28.5q-11 -28 -15 -49q-16 -75 8 -145q20 -61 65 -107q40 -40 93 -62q56 -24 117 -22q83 4 151 52q63 45 94 117q31 69 21 143q-15 117 -110 190q-6 4 -12 8.5t-14 9t-13 7.5q-9 6 -14 15q-14 22 6 42q15 15 37 4q107 -56 158 -164q25 -53 31 -114
q0 -4 1 -4v-5q-1 0 -1 -3v-3v-3l1 -5v-22z" />
    <glyph glyph-name="uniE65C" unicode="&#xe65c;" 
d="M764 602q10 -31 10 -63q0 -71 -43 -131t-117 -95t-161 -35q-54 0 -105 14l50 31q27 -4 52 -4q116 0 198.5 70t82.5 170t-82.5 170.5t-199 70.5t-198.5 -70.5t-82 -170.5q0 -56 29 -105.5t79 -83.5v-120l63 38q39 -45 98 -70.5t127 -25.5q25 0 52 4l121 -73v120
q50 34 79 83.5t29 105.5q0 99 -82 170zM590 588q14 0 23.5 -9t9.5 -22.5t-9.5 -22.5t-23 -9t-23 9t-9.5 22.5t9.5 22.5t22.5 9zM461 588q13 0 22.5 -9t9.5 -22.5t-9.5 -22.5t-23 -9t-23 9t-9.5 22.5t9.5 22.5t23.5 9zM299 557q0 13 9.5 22t22.5 9t22.5 -9t9.5 -22.5
t-9.5 -22.5t-22.5 -9t-22.5 9t-9.5 23zM299 557z" />
  </font>
</defs>
</svg>
