<?xml version="1.0" standalone="no"?>
<!DOCTYPE svg PUBLIC "-//W3C//DTD SVG 1.1//EN" "http://www.w3.org/Graphics/SVG/1.1/DTD/svg11.dtd" >
<svg xmlns="http://www.w3.org/2000/svg">
<metadata>
Created by FontForge 20120731 at Tue Aug 23 11:53:37 2016
 By admin
</metadata>
<defs>
<font id="iconfont" horiz-adv-x="1024" >
  <font-face 
    font-family="iconfont"
    font-weight="500"
    font-stretch="normal"
    units-per-em="1024"
    panose-1="2 0 6 3 0 0 0 0 0 0"
    ascent="896"
    descent="-128"
    x-height="792"
    bbox="0 -212 1024 896"
    underline-thickness="50"
    underline-position="-100"
    unicode-range="U+0078-E61F"
  />
<missing-glyph horiz-adv-x="374" 
d="M34 0v682h272v-682h-272zM68 34h204v614h-204v-614z" />
    <glyph glyph-name=".notdef" horiz-adv-x="374" 
d="M34 0v682h272v-682h-272zM68 34h204v614h-204v-614z" />
    <glyph glyph-name=".null" horiz-adv-x="0" 
 />
    <glyph glyph-name="nonmarkingreturn" horiz-adv-x="341" 
 />
    <glyph glyph-name="x" unicode="x" horiz-adv-x="1001" 
d="M281 543q-27 -1 -53 -1h-83q-18 0 -36.5 -6t-32.5 -18.5t-23 -32t-9 -45.5v-76h912v41q0 16 -0.5 30t-0.5 18q0 13 -5 29t-17 29.5t-31.5 22.5t-49.5 9h-133v-97h-438v97zM955 310v-52q0 -23 0.5 -52t0.5 -58t-10.5 -47.5t-26 -30t-33 -16t-31.5 -4.5q-14 -1 -29.5 -0.5
t-29.5 0.5h-32l-45 128h-439l-44 -128h-29h-34q-20 0 -45 1q-25 0 -41 9.5t-25.5 23t-13.5 29.5t-4 30v167h911zM163 247q-12 0 -21 -8.5t-9 -21.5t9 -21.5t21 -8.5q13 0 22 8.5t9 21.5t-9 21.5t-22 8.5zM316 123q-8 -26 -14 -48q-5 -19 -10.5 -37t-7.5 -25t-3 -15t1 -14.5
t9.5 -10.5t21.5 -4h37h67h81h80h64h36q23 0 34 12t2 38q-5 13 -9.5 30.5t-9.5 34.5q-5 19 -11 39h-368zM336 498v228q0 11 2.5 23t10 21.5t20.5 15.5t34 6h188q31 0 51.5 -14.5t20.5 -52.5v-227h-327z" />
    <glyph glyph-name="uniE600" unicode="&#xe600;" horiz-adv-x="1000" 
d="M550 623l275 -274l-550 -547h-275v274zM240 -114l60 60l-155 155l-60 -60v-71h84v-84h71zM586 497q0 14 -15 14q-6 0 -11 -5l-358 -356q-5 -5 -5 -11q0 -15 15 -15q6 0 11 5l358 357q5 4 5 11zM1002 560q0 -35 -25 -59l-110 -110l-275 274l110 109q24 25 60 25
q35 0 60 -25l155 -154q25 -26 25 -60z" />
    <glyph glyph-name="uniE601" unicode="&#xe601;" 
d="M512 747q-91 0 -174 -35t-143 -95t-95 -143t-35 -174t35 -173.5t95 -142.5t143 -95.5t174 -35.5t173.5 35.5t142.5 95.5t95.5 142.5t35.5 173.5t-35.5 174t-95.5 143t-142.5 95t-173.5 35zM691 346v-65h-110v-89h110v-61h-111v-113h-130v114h-116v58h115v89h-116v64h118
l-142 237l88 -6q84 -134 119 -189q115 185 115 189l84 6l-136 -234h112z" />
    <glyph glyph-name="uniE602" unicode="&#xe602;" 
d="M848 762h-672q-107 0 -107 -107v-427q0 -54 25 -79.5t78 -25.5h103l-13 -109q0 -21 19 -31q8 -5 17 -5q11 0 20 6l204 139h330q53 0 78 25.5t25 79.5v427q0 107 -107 107zM306 391q-21 0 -36 15t-15 36t15 36.5t36 15.5t36.5 -15t15.5 -36.5t-15.5 -36.5t-36.5 -15z
M512 391q-21 0 -36.5 15t-15.5 36t15.5 36.5t36.5 15.5t36.5 -15t15.5 -36.5t-15.5 -36.5t-36.5 -15zM718 391q-21 0 -36.5 15t-15.5 36.5t15.5 36.5t36.5 15t36.5 -15t15.5 -36.5t-15.5 -36.5t-36.5 -15z" />
    <glyph glyph-name="uniE603" unicode="&#xe603;" 
d="M512 792q-100 0 -191 -39t-157 -105t-105 -157t-39 -191t39 -191t105 -157t157 -105t191 -39t191 39t157 105t105 157t39 191t-39 191t-105 157t-157 105t-191 39zM681 261q12 0 21 -9t9 -21t-9 -20.5t-21 -8.5h-140v-120q0 -12 -8.5 -20.5t-20.5 -8.5t-20.5 8.5
t-8.5 20.5v120h-140q-12 0 -21 8.5t-9 20.5t9 21t21 9h140v55h-140q-12 0 -21 8.5t-9 20.5t9 21t21 9h91l-67 70q-8 9 -7.5 21t9.5 21q8 7 20.5 7t20.5 -9l100 -107l103 113q9 12 24 12q9 0 16 -5q10 -6 12.5 -18t-3.5 -22l-77 -83h96q12 0 21 -9t9 -21t-9 -20.5t-21 -8.5
h-140v-55h140z" />
    <glyph glyph-name="uniE604" unicode="&#xe604;" 
d="M959 587l-42 -45l-256 271l42 46q36 37 86 37t85 -37l85 -91q35 -37 35 -90.5t-35 -90.5zM378 61q-9 -10 -9 -23t9 -22.5t21.5 -9.5t20.5 9l442 469l-43 45zM165 287q-9 -10 -9 -23t8.5 -22.5t21 -9.5t21.5 10l441 468l-42 45zM702 653l-442 -468q-42 -45 -10 -79
q33 -35 75 10l442 468zM319 -46q-19 20 -24 54q-11 -2 -18 -2q-50 0 -86 38q-35 38 -35 90q0 6 2 19q-31 4 -52 27q0 1 -1 2.5t-2 2.5l-73 -313l293 78q0 1 -1.5 2t-2.5 2z" />
    <glyph glyph-name="uniE605" unicode="&#xe605;" 
d="M288 -8q0 -23 12 -28t29 12l181 180h400q24 0 40.5 17t16.5 40v513q0 23 -16.5 39.5t-40.5 16.5h-739q-24 0 -40.5 -16.5t-16.5 -39.5v-513q0 -23 16.5 -40t40.5 -17h117v-164zM853 270v398h-625v-398h174v-92l92 92h359zM341 555h399v-57h-399v57zM341 441h399v-57h-399
v57z" />
    <glyph glyph-name="uniE606" unicode="&#xe606;" 
d="M733 287q-41 0 -76 -20.5t-57 -54.5l-169 99q18 36 18 73q0 21 -8 47l177 103q47 -53 115 -53q66 0 112.5 47.5t46.5 115t-46.5 115t-112 47.5t-112 -47.5t-46.5 -114.5q0 -22 8 -47l-177 -103q-47 52 -115 52q-66 0 -112.5 -47.5t-46.5 -114.5t46.5 -114.5t112.5 -47.5
q52 0 95 33l-1 -1l192 -112q-2 -16 -2 -18q0 -67 46.5 -114.5t112 -47.5t112 47.5t46.5 115t-46.5 115t-112.5 47.5zM733.5 741q39.5 0 67 -28.5t27.5 -69t-27.5 -69t-67 -28.5t-67 28.5t-27.5 69t27.5 69t67 28.5zM290.5 287q-39.5 0 -67 28.5t-27.5 68.5t27.5 68.5
t67 28.5t67 -28.5t27.5 -68.5t-27.5 -68.5t-67 -28.5zM733.5 27q-39.5 0 -67 28.5t-27.5 69t27.5 69t67 28.5t67 -28.5t27.5 -69t-27.5 -69t-67 -28.5z" />
    <glyph glyph-name="uniE607" unicode="&#xe607;" 
d="M512 747q-91 0 -174 -35t-143 -95t-95 -143t-35 -174t35 -173.5t95 -142.5t143 -95.5t174 -35.5t173.5 35.5t142.5 95.5t95.5 142.5t35.5 173.5t-35.5 174t-95.5 143t-142.5 95t-173.5 35zM691 346v-65h-110v-89h110v-61h-111v-113h-130v114h-116v58h115v89h-116v64h118
l-142 237l88 -6q84 -134 119 -189q115 185 115 189l84 6l-136 -234h112z" />
    <glyph glyph-name="uniE608" unicode="&#xe608;" 
d="M519 288zM527 280zM512 -212q-139 0 -257 68.5t-186.5 186.5t-68.5 257t68.5 257t186.5 186.5t257 68.5t257 -68.5t186.5 -186.5t68.5 -257t-68.5 -257t-186.5 -186.5t-257 -68.5zM703 609q-36 -4 -55 -30l-136 -198l-136 198q-22 26 -55 30q-67 -8 -70 -71
q-4 -26 14 -41l118 -168h-77q-41 -7 -44 -41q0 -41 44 -41h136v-63h-136q-41 -8 -44 -41q0 -41 44 -41h136v-116q0 -64 70 -64q66 0 70 64v116h136q41 0 44 41q-7 33 -44 41h-136v63h136q41 0 44 41q-7 34 -44 41h-77l118 168q14 15 14 41q-7 63 -70 71z" />
    <glyph glyph-name="uniE609" unicode="&#xe609;" 
d="M510.5 738q-89.5 0 -171 -34.5t-140 -93.5t-93.5 -140.5t-35 -171t35 -171t93.5 -140t140 -93.5t171 -35t171 35t140 93.5t93.5 140t35 171t-35 171t-93.5 140.5t-140 93.5t-171 34.5zM687 344v-64h-108v-88h108v-60h-109v-110h-128v111h-115v57h114v87h-114v64h116
l-139 233l86 -6q82 -132 117 -186q113 182 113 186l82 5l-133 -229h110z" />
    <glyph glyph-name="uniE60A" unicode="&#xe60a;" 
d="M512 834q-186 0 -318 -132t-132 -318t132 -318t318 -132t318 132t132 318t-132 318t-318 132zM681 384v-56h-113v-56h113v-57h-113v-112h-112v112h-113v57h113v56h-113v56h94l-129 225h112q22 -24 43.5 -67t34.5 -72.5t19 -29.5h2q3 0 6 11q2 5 7.5 14t17 29t23.5 44
l41 71h106l-132 -225h93z" />
    <glyph glyph-name="uniE60B" unicode="&#xe60b;" 
d="M58 57q0 -87 62 -149t149 -62t149 62t62 149v211h-211q-87 0 -149 -62t-62 -149zM403 57q0 -56 -39 -95t-94.5 -39t-95 39.5t-39.5 95t39.5 94.5t94.5 39h134v-134zM966 543q0 87 -62 149t-149 62t-149 -62t-62 -149v-211h211q87 0 149 62t62 149zM621 543q0 56 39 95
t94.5 39t95 -39.5t39.5 -95t-39.5 -94.5t-94.5 -39h-134v134zM269 332h211v211q0 87 -62 149t-149 62t-149 -62t-62 -149t62 -149t149 -62zM269.5 677q55.5 0 94.5 -39.5t39 -94.5v-134h-134q-56 0 -95 39t-39 94.5t39.5 95t95 39.5zM755 268h-211v-211q0 -87 62 -149
t149 -62t149 62t62 149t-62 149t-149 62zM754.5 -77q-55.5 0 -94.5 39.5t-39 94.5v134h134q56 0 95 -39t39 -94.5t-39.5 -95t-95 -39.5z" />
    <glyph glyph-name="uniE60C" unicode="&#xe60c;" 
d="M358 401q35 0 59.5 25t24.5 60v156q0 35 -24.5 60t-59.5 25h-157q-35 0 -59.5 -25t-24.5 -60v-156q0 -35 24.5 -60t59.5 -25h157zM358 365h-157q-50 0 -85.5 35.5t-35.5 85.5v156q0 50 35.5 85.5t85.5 35.5h157q50 0 85 -35.5t35 -85.5v-156q0 -50 -35 -85.5t-85 -35.5v0
zM852 401q35 0 60 25t25 60v156q0 35 -25 60t-60 25h-156q-35 0 -60 -25t-25 -60v-156q0 -35 25 -60t60 -25h156zM852 365h-156q-50 0 -85.5 35.5t-35.5 85.5v156q0 50 35.5 85.5t85.5 35.5h156q50 0 85.5 -35.5t35.5 -85.5v-156q0 -50 -35.5 -85.5t-85.5 -35.5v0zM358 -93
q35 0 59.5 24.5t24.5 59.5v157q0 35 -24.5 59.5t-59.5 24.5h-157q-35 0 -59.5 -24.5t-24.5 -59.5v-157q0 -35 24.5 -59.5t59.5 -24.5h157zM358 -130h-157q-50 0 -85.5 35.5t-35.5 85.5v157q0 50 35.5 85t85.5 35h157q50 0 85 -35t35 -85v-157q0 -50 -35 -85.5t-85 -35.5v0z
M852 -93q35 0 60 24.5t25 59.5v157q0 35 -25 59.5t-60 24.5h-156q-35 0 -60 -24.5t-25 -59.5v-157q0 -35 25 -59.5t60 -24.5h156zM852 -130h-156q-50 0 -85.5 35.5t-35.5 85.5v157q0 50 35.5 85t85.5 35h156q50 0 85.5 -35t35.5 -85v-157q0 -50 -35.5 -85.5t-85.5 -35.5v0z
" />
    <glyph glyph-name="uniE60D" unicode="&#xe60d;" 
d="M392 723h-116q-41 0 -70 -29t-29 -70v-99q0 -41 29 -70t70 -29h116q41 0 70 29t29 70v99q0 41 -29 70t-70 29zM755 723h-116q-41 0 -70 -29t-29 -70v-99q0 -41 29 -70t70 -29h116q41 0 70 29t29 70v99q0 41 -29 70t-70 29zM392 393h-116q-41 0 -70 -29t-29 -70v-99
q0 -41 29 -70t70 -29h116q41 0 70 29t29 70v99q0 41 -29 70t-70 29zM755 393h-116q-41 0 -70 -29t-29 -70v-99q0 -41 29 -70t70 -29h116q41 0 70 29t29 70v99q0 41 -29 70t-70 29z" />
    <glyph glyph-name="uniE60E" unicode="&#xe60e;" 
d="M368 318h-233q-35 0 -59.5 -24.5t-24.5 -59.5v-233q0 -35 24.5 -59t59.5 -24h233q34 0 58.5 24.5t24.5 58.5v233q0 35 -24 59.5t-59 24.5zM900 318h-232q-36 0 -60 -24.5t-24 -59.5v-233q0 -35 24 -59t60 -24h232q35 0 59.5 24.5t24.5 58.5v233q0 35 -24.5 59.5
t-59.5 24.5zM368 850h-233q-35 0 -59.5 -24t-24.5 -59v-233q0 -35 24.5 -59.5t59.5 -24.5h233q34 0 58.5 25t24.5 59v233q0 35 -24 59t-59 24zM900 850h-232q-36 0 -60 -24t-24 -59v-233q0 -35 24 -59.5t60 -24.5h232q35 0 59.5 25t24.5 59v233q0 35 -24.5 59t-59.5 24z" />
    <glyph glyph-name="uniE60F" unicode="&#xe60f;" 
d="M320 896h-192q-53 0 -90.5 -37.5t-37.5 -90.5v-192q0 -53 37.5 -90.5t90.5 -37.5h192q53 0 90.5 37.5t37.5 90.5v192q0 53 -37.5 90.5t-90.5 37.5zM896 896h-192q-53 0 -90.5 -37.5t-37.5 -90.5v-192q0 -53 37.5 -90.5t90.5 -37.5h192q53 0 90.5 37.5t37.5 90.5v192
q0 53 -37.5 90.5t-90.5 37.5zM320 320h-192q-53 0 -90.5 -37.5t-37.5 -90.5v-192q0 -53 37.5 -90.5t90.5 -37.5h192q53 0 90.5 37.5t37.5 90.5v192q0 53 -37.5 90.5t-90.5 37.5zM896 320h-192q-53 0 -90.5 -37.5t-37.5 -90.5v-192q0 -53 37.5 -90.5t90.5 -37.5h192
q53 0 90.5 37.5t37.5 90.5v192q0 53 -37.5 90.5t-90.5 37.5z" />
    <glyph glyph-name="uniE610" unicode="&#xe610;" 
d="M852 724q14 0 24 -10t10 -24v-170q0 -14 -10 -24t-24 -10h-238v204q0 14 10 24t24 10h204zM376 724q14 0 24 -10t10 -24v-204h-238q-14 0 -24 10t-10 24v170q0 14 10 24t24 10h204zM852 282q14 0 24 -10t10 -24v-170q0 -14 -10 -24t-24 -10h-204q-14 0 -24 10t-10 24v204
h238zM410 282v-204q0 -14 -10 -24t-24 -10h-204q-14 0 -24 10t-10 24v170q0 14 10 24t24 10h238zM852 792h-204q-42 0 -72 -29.5t-30 -72.5v-272h306q43 0 72.5 30t29.5 72v170q0 43 -29.5 72.5t-72.5 29.5zM376 792h-204q-43 0 -72.5 -29.5t-29.5 -72.5v-170
q0 -42 29.5 -72t72.5 -30h306v272q0 43 -30 72.5t-72 29.5zM852 350h-306v-272q0 -43 30 -72.5t72 -29.5h204q43 0 72.5 29.5t29.5 72.5v170q0 42 -29.5 72t-72.5 30zM478 350h-306q-43 0 -72.5 -30t-29.5 -72v-170q0 -43 29.5 -72.5t72.5 -29.5h204q42 0 72 29.5t30 72.5
v272z" />
    <glyph glyph-name="uniE611" unicode="&#xe611;" 
d="M772 83l-139 90q-18 12 -31 5t-13 -28v-70h-258q-89 0 -152.5 63t-63.5 153v11q0 89 62 152q8 8 8 18.5t-7.5 18t-18.5 7.5t-19 -7q-78 -79 -78 -189v-11q0 -111 79 -189.5t190 -78.5h258v-69q0 -22 13 -29t31 5l139 90q18 12 18 29t-18 29zM689 575h-244v69q0 22 -13 29
t-31 -5l-139 -90q-19 -12 -19 -29t19 -29l139 -90q18 -12 31 -5t13 28v70h244q90 0 153.5 -63t63.5 -153v-11q0 -83 -56 -145q-7 -8 -6.5 -18.5t8.5 -17.5q7 -7 17 -7q12 0 20 8q69 77 69 180v11q0 111 -78.5 189.5t-190.5 78.5z" />
    <glyph glyph-name="uniE612" unicode="&#xe612;" 
d="M792 536h-386q-10 0 -16.5 -7t-6.5 -16.5t6.5 -16t16.5 -6.5h386q10 0 16.5 6.5t6.5 16t-6.5 16.5t-16.5 7zM772 714h-521q-63 0 -108 -45t-45 -108v-521q0 -63 45 -108t108 -45h521q63 0 108 45t45 108v521q0 63 -45 108t-108 45zM879 40q0 -44 -31.5 -75.5t-75.5 -31.5
h-521q-44 0 -75 31.5t-31 75.5v521q0 44 31 75t75 31h521q44 0 75.5 -31t31.5 -75v-521zM792 332h-386q-10 0 -16.5 -7t-6.5 -16.5t6.5 -16.5t16.5 -7h386q10 0 16.5 7t6.5 16.5t-6.5 16.5t-16.5 7zM792 128h-386q-10 0 -16.5 -7t-6.5 -16.5t6.5 -16.5t16.5 -7h386
q10 0 16.5 7t6.5 16.5t-6.5 16.5t-16.5 7zM264.5 562q-20.5 0 -34.5 -14.5t-14 -35t14 -34.5t34.5 -14t35 14t14.5 34.5t-14.5 35t-35 14.5zM264.5 358q-20.5 0 -34.5 -14.5t-14 -35t14 -35t34.5 -14.5t35 14.5t14.5 35t-14.5 35t-35 14.5zM264.5 154q-20.5 0 -34.5 -14.5
t-14 -35t14 -35t34.5 -14.5t35 14.5t14.5 35t-14.5 35t-35 14.5z" />
    <glyph glyph-name="uniE613" unicode="&#xe613;" 
d="M366 373h292v110q0 60 -42.5 103t-103.5 43t-103.5 -43t-42.5 -103v-110zM841 318v-329q0 -23 -16 -39t-39 -16h-548q-23 0 -39 16t-16 39v329q0 23 16 39t39 16h18v110q0 105 75.5 180.5t180.5 75.5t180.5 -75.5t75.5 -180.5v-110h18q23 0 39 -16t16 -39z" />
    <glyph glyph-name="uniE614" unicode="&#xe614;" 
d="M914 9q0 -68 -41.5 -108t-110.5 -40h-500q-69 0 -110.5 40t-41.5 108q0 30 2 59t8 62.5t15 62t24.5 55.5t35.5 46.5t49 31t63 11.5q6 0 24.5 -12.5t42.5 -27.5t62 -27.5t76 -12.5t76 12.5t62 27.5t42.5 27.5t24.5 12.5q34 0 63 -11.5t49 -31t35.5 -46.5t24.5 -55.5
t15 -62t8 -62.5t2 -59zM731 519.5q0 -90.5 -64 -155t-155 -64.5t-155 64.5t-64 155t64 155t155 64.5t155 -64.5t64 -155z" />
    <glyph glyph-name="uniE615" unicode="&#xe615;" 
d="M1024 108v-64h-1024v768h64v-704h960zM179 697h672v-96h-672v96zM179 550h506v-96h-506v96zM179 255h378v-96h-378v96zM179 402h755v-96h-755v96z" />
    <glyph glyph-name="uniE616" unicode="&#xe616;" 
d="M794 121h-538v220l59 -59q8 -8 18 -8t17.5 8t7.5 18t-7 18l-103 102l-4 4l-1 1l-1 1l-1 1q-2 0 -3 1q-1 0 -2 1q-6 2 -11 0q-1 0 -2 -1q-2 0 -3 -1l-1 -1l-1 -1q-2 0 -2 -1l-4 -4l-102 -102q-8 -8 -8 -18t8 -18t18 -8t18 8l59 59v-246q0 -10 7.5 -17.5t17.5 -7.5h564
q10 0 17.5 7.5t7.5 18t-7.5 18t-17.5 7.5zM878 318l-59 -59v246q0 10 -7.5 17.5t-17.5 7.5h-564q-10 0 -17.5 -7.5t-7.5 -18t7.5 -18t17.5 -7.5h538v-220l-59 59q-8 8 -18 8t-17.5 -8t-7.5 -18t7 -18l103 -102l4 -4l1 -1l1 -1l1 -1q2 0 3 -1q1 0 2 -1h6h5q1 0 2 1q2 0 3 1
l1 1l1 1q2 0 2 1l4 4l102 102q8 8 8 18t-8 18t-18 8t-18 -8z" />
    <glyph glyph-name="uniE617" unicode="&#xe617;" 
d="M158 393q39 0 66.5 -27t27.5 -66t-27.5 -66.5t-66.5 -27.5t-66.5 27.5t-27.5 66.5t27.5 66t66.5 27zM511 393q39 0 66.5 -27t27.5 -66t-27.5 -66.5t-66.5 -27.5t-66.5 27.5t-27.5 66.5t27.5 66t66.5 27zM863.5 393q38.5 0 66 -27t27.5 -66t-27.5 -66.5t-66 -27.5
t-66 27.5t-27.5 66.5t27.5 66t66 27z" />
    <glyph glyph-name="uniE618" unicode="&#xe618;" 
d="M503 610q-58 0 -114 -16.5t-98.5 -43t-80 -58.5t-64.5 -64t-45.5 -58.5t-28.5 -43t-9 -16.5q4 -5 12 -14.5t33.5 -37.5t53 -53t70 -56t84.5 -53t95 -37t105 -15q70 0 142 28t124 67t94.5 79.5t64 67t21.5 27.5q-4 6 -11 17t-30.5 41.5t-49.5 58.5t-67.5 62.5t-84.5 59
t-100 41.5t-116 17zM512 198q-53 0 -90.5 38t-37.5 91t37.5 90.5t91 37.5t91 -37.5t37.5 -90.5t-37.5 -91t-91.5 -38z" />
    <glyph glyph-name="uniE619" unicode="&#xe619;" 
d="M899 641l-6 2q-100 20 -188.5 65.5t-181.5 116.5q-6 4 -15 4t-14 -4q-94 -73 -162 -111q-18 -10 -37 -18.5t-46 -17t-37.5 -11.5t-48 -13t-39.5 -10q-13 -4 -17.5 -14.5t-0.5 -22.5q10 -231 81 -387q40 -88 125.5 -158.5t189.5 -119.5q6 -3 12 -3q9 -1 17 3
q100 49 182 120t125 158q72 145 82 394q1 23 -21 27zM789 248q-66 -144 -273 -250q-199 98 -274 239q-68 126 -80 358q116 31 180 59q62 28 167 109q187 -136 354 -172q-11 -207 -74 -343zM695 528q-148 -149 -221 -223q-78 78 -117 118q-12 12 -27.5 6.5t-19.5 -19.5t7 -27
q22 -23 67 -68t68 -69q1 0 2 -1q8 -9 18.5 -10t20.5 9q19 18 107.5 107.5t134.5 136.5q12 12 6.5 27.5t-19 19.5t-27.5 -7z" />
    <glyph glyph-name="uniE61A" unicode="&#xe61a;" 
d="M345 650q-16 0 -27.5 -11.5t-11.5 -27.5t11.5 -27.5t27.5 -11.5h343q16 0 27.5 11.5t11.5 27.5t-11.5 27.5t-27.5 11.5h-74v75q0 26 -18.5 44t-44.5 18h-68q-26 0 -44.5 -18t-18.5 -44v-75h-75zM516 752q18 0 30 -12t12 -29t-12 -29t-29.5 -12t-29.5 12t-12 29t12 29
t29 12zM701 322q-65 0 -112 -46.5t-47 -112.5t47 -112.5t112.5 -46.5t112 46.5t46.5 112.5t-46.5 112.5t-112.5 46.5zM812 143h-111q-8 0 -14 5.5t-6 14.5v106q0 9 6 15t14.5 6t14.5 -6t6 -15v-86h90q9 0 15 -6t6 -14.5t-6 -14t-15 -5.5zM255 103v546q0 6 4.5 10.5t10.5 4.5
h101v61h-101q-31 0 -53 -22.5t-22 -53.5v-546q0 -32 22 -54t53 -22h267q-3 3 -7 8.5t-9.5 21.5t-4.5 31h-246q-6 0 -10.5 4.5t-4.5 10.5zM778 649v-308q22 4 37 -1.5t19 -11.5l4 -7v328q0 31 -22 53.5t-53 22.5h-99v-61h99q6 0 10.5 -4.5t4.5 -10.5zM349 284q-7 0 -12.5 5
t-5.5 12.5t5.5 13t12.5 5.5h158q8 0 13 -5.5t5 -13t-5 -12.5t-13 -5h-158v0zM349 368q-7 0 -12.5 5.5t-5.5 13t5.5 12.5t12.5 5h326q7 0 12.5 -5t5.5 -12.5t-5.5 -13t-12.5 -5.5h-326v0zM349 451q-7 0 -12.5 5.5t-5.5 13t5.5 12.5t12.5 5h244q7 0 12.5 -5t5.5 -12.5
t-5.5 -13t-12.5 -5.5h-244v0z" />
    <glyph glyph-name="uniE61B" unicode="&#xe61b;" 
d="M877 590l-206 -122v138q0 20 -14 33.5t-33 13.5h-512q-20 0 -34 -13.5t-14 -33.5v-443q0 -19 14 -33t34 -14h512q19 0 33 14t14 33v141l211 -125h77v411h-82z" />
    <glyph glyph-name="uniE61C" unicode="&#xe61c;" 
d="M162 608q0 6 4 10t10 4h629q24 0 40.5 -16t16.5 -39v-259l74 74q10 10 20 0t0 -20l-98 -98q-4 -4 -10 -4t-10 4l-98 98q-10 10 0 20t20 0l74 -74v259q0 12 -8.5 19.5t-20.5 7.5h-629q-6 0 -10 4t-4 10zM88 390l74 74v-259q0 -24 17 -41.5t40 -17.5h629q6 0 10 4t4 10
t-4 10t-10 4h-629q-12 0 -20.5 9.5t-8.5 21.5v259l74 -74q4 -4 10 -4t10 4q10 10 0 20l-98 98q-4 4 -10 4t-10 -4l-98 -98q-10 -10 0 -20t20 0z" />
    <glyph glyph-name="uniE61D" unicode="&#xe61d;" 
d="M512 469q34 0 59 -24.5t25 -59t-25 -59.5t-59.5 -25t-59 25t-24.5 59.5t24.5 59t59.5 24.5zM844 469q35 0 59.5 -24.5t24.5 -59t-24.5 -59.5t-59.5 -25t-59.5 25t-24.5 59.5t24.5 59t59.5 24.5zM179 469q35 0 59.5 -24.5t24.5 -59t-24.5 -59.5t-59.5 -25t-59.5 25
t-24.5 59.5t24.5 59t59.5 24.5zM148 469z" />
    <glyph glyph-name="uniE61E" unicode="&#xe61e;" 
d="M904 29h-784q-16 0 -27 -11t-11 -26.5t11 -26.5t27 -11h784q16 0 27 11t11 26.5t-11 26.5t-27 11zM456 141h112q16 0 26.5 11t10.5 26v598q0 16 -10.5 27t-26.5 11h-112q-16 0 -26.5 -11t-10.5 -27v-598q0 -15 10.5 -26t26.5 -11zM512 328q23 0 39.5 -16.5t16.5 -39.5
t-16.5 -39.5t-39.5 -16.5t-39.5 16.5t-16.5 39.5t16.5 39.5t39.5 16.5zM718 141h112q15 0 26 11t11 26v486q0 16 -11 27t-26 11h-112q-16 0 -27 -11t-11 -27v-486q0 -15 11 -26t27 -11zM773.5 328q23.5 0 40 -16.5t16.5 -39.5t-16.5 -39.5t-40 -16.5t-39.5 16.5t-16 39.5
t16 39.5t39.5 16.5zM194 141h112q16 0 27 11t11 26v412q0 15 -11 26t-27 11h-112q-15 0 -26 -11t-11 -26v-412q0 -15 11 -26t26 -11zM250.5 328q23.5 0 39.5 -16.5t16 -39.5t-16 -39.5t-39.5 -16.5t-40 16.5t-16.5 39.5t16.5 39.5t40 16.5z" />
    <glyph glyph-name="uniE61F" unicode="&#xe61f;" 
d="M512 -128l-11 4q-100 39 -174 86t-114.5 89.5t-64 92t-30 86t-6.5 78.5v462l31 -1q68 -2 129 8t97.5 24t67.5 32t40 26t13 13l22 24l22 -24q4 -4 12.5 -11.5t37 -25t62.5 -31t90.5 -24.5t118.5 -11h26l31 1v-462q0 -42 -6.5 -78.5t-30 -86t-64 -92t-114.5 -89.5t-174 -86
zM172 709v-401q0 -20 0.5 -34t7.5 -44t18.5 -53.5t37 -57t60.5 -62t90.5 -61t125.5 -59.5q70 27 125.5 59.5t90.5 61t60.5 62t37 57t18.5 53.5t7.5 44t0.5 34v401q-66 0 -125 10.5t-100.5 28t-68 32.5t-46.5 31q-20 -16 -46.5 -31t-68 -32.5t-100.5 -28t-125 -10.5zM242 359
l62 50l124 -92q7 8 19.5 20t51 47t76.5 66.5t90.5 67.5t98.5 59l24 -27q-9 -7 -23.5 -19.5t-55.5 -54.5t-78.5 -86t-81.5 -109t-74 -129z" />
  </font>
</defs>
</svg>
